BitTorrentTracker PerecTracker.org
BitTorrentTracker PerecTracker.org
    
Регистрация  ·  Вход
 
 · 
Забыли пароль?

  • Убойные каникулы / Праздник для убийцы / Killer Holiday (Марти Томас / Marty Thomas) [2013, США, триллер, ужасы, DVDRip] DVO (DeadSno & den904)

    Ответить на тему
     
    Автор Сообщение

    Columb

    Создавать темы 20-Дек-2013 19:47

           

    [Цитировать]

    Убойные каникулы / Праздник для убийцы / Killer Holiday
    Страна: США
    Жанр: триллер, ужасы
    Год выпуска: 2013
    Продолжительность: 01:29:14
    Перевод: Любительский (двухголосый закадровый) DeadSno & den904
    Перевод на русский язык Antonio, работа со звуком Гуннлауг
    Cубтитры: нет
    Оригинальная аудиодорожка: нет
    Режиссер: Марти Томас / Marty Thomas
    В ролях: Майкл Копон, Рэйчел Лара, Джулия Бет Штерн, Алекс Мэндел, Рэйчел Уиксом, Мэтт Кэллоуэй
    Описание: Когда восемь подростков, отправившихся весело провести выходные, сворачивают с трассы 66 к заброшенному парку развлечений, начинается кровавая бойня, устроенная психопатом убийцей по четкому плану.

    Сэмпл: http://multi-up.com/
    Качество видео: DVDRip
    Формат видео: AVI
    Видео: DivX 5 640x272 23.98fps 954Kbps
    Аудио: MPEG Audio Layer 3 48000Hz stereo 192Kbps

    MediaInfo

    General
    Complete name : D:\TORRENTS\Killer Holiday.avi
    Format : AVI
    Format/Info : Audio Video Interleave
    File size : 738 MiB
    Duration : 1h 29mn
    Overall bit rate : 1 156 Kbps
    Video
    ID : 0
    Format : MPEG-4 Visual
    Format profile : Advanced Simple@L5
    Format settings, BVOP : 2
    Format settings, QPel : No
    Format settings, GMC : No warppoints
    Format settings, Matrix : Default (H.263)
    Codec ID : DX50
    Codec ID/Hint : DivX 5
    Duration : 1h 29mn
    Bit rate : 955 Kbps
    Width : 640 pixels
    Height : 272 pixels
    Display aspect ratio : 2.35:1
    Frame rate : 23.976 fps
    Color space : YUV
    Chroma subsampling : 4:2:0
    Bit depth : 8 bits
    Scan type : Progressive
    Compression mode : Lossy
    Bits/(Pixel*Frame) : 0.229
    Stream size : 610 MiB (83%)
    Writing library : XviD 64
    Audio
    ID : 1
    Format : MPEG Audio
    Format version : Version 1
    Format profile : Layer 3
    Mode : Joint stereo
    Mode extension : MS Stereo
    Codec ID : 55
    Codec ID/Hint : MP3
    Duration : 1h 29mn
    Source duration : 1h 29mn
    Bit rate mode : Constant
    Bit rate : 192 Kbps
    Channel(s) : 2 channels
    Sampling rate : 48.0 KHz
    Compression mode : Lossy
    Stream size : 123 MiB (17%)
    Alignment : Aligned on interleaves
    Interleave, duration : 42 ms (1.00 video frame)
    Writing library : LAME3.99r
    Encoding settings : -m j -V 4 -q 3 -lowpass 18.6 -b 192

    Скриншот c названием фильма

    Скриншоты

    Скачать .torrent

    Скачать торрент-файл бесплатно и на максимальной скорости!

    Как скачивать? · Что такое торрент? · Рейтинг и ограничения

    !ВНИМАНИЕ!
    Сайт не распространяет и не хранит электронные версии произведений, а занимается лишь лишь предоставлением доступа к создаваемому пользователями каталогу ссылок на торрент-файлы, которые содержат только списки хеш-сумм, убедительная просьба с жалобами обращаться напрямую к пользователю. Файлы для обмена на трекере предоставлены пользователями сайта, и администрация не несёт ответственности за их содержание. Просьба не заливать файлы, защищенные авторскими правами, а также файлы нелегального содержания!

    [Профиль] [ЛС]

    -746

    Создавать темы 19-Апр-2014 00:00 (спустя 3 месяца 29 дней)

           

    Топик был перенесен из форума Зарубежные Фильмы (Новинки) в форум Фильмы 2011-2013

    -sasha2006 

    _________________
    Как бы ты высоко не летал, не забывай, с кем ты ползал..
     
    Показать сообщения:    
    Ответить на тему

    Текущее время: Сегодня, в 14:33

    Часовой пояс: GMT + 2



    Вы не можете начинать темы
    Вы не можете отвечать на сообщения
    Вы не можете редактировать свои сообщения
    Вы не можете удалять свои сообщения
    Вы не можете голосовать в опросах
    Вы не можете прикреплять файлы к сообщениям
    Вы не можете скачивать файлы