Register  ·  Log in
Forgot password?

  • Убойные каникулы / Праздник для убийцы / Killer Holiday (Марти Томас / Marty Thomas) [2013, США, триллер, ужасы, DVDRip] DVO (DeadSno & den904)

    Reply to topic
    Author Message


    Post 20-Dec-2013 20:47



    Убойные каникулы / Праздник для убийцы / Killer Holiday
    Страна: США
    Жанр: триллер, ужасы
    Год выпуска: 2013
    Продолжительность: 01:29:14
    Перевод: Любительский (двухголосый закадровый) DeadSno & den904
    Перевод на русский язык Antonio, работа со звуком Гуннлауг
    Cубтитры: нет
    Оригинальная аудиодорожка: нет
    Режиссер: Марти Томас / Marty Thomas
    В ролях: Майкл Копон, Рэйчел Лара, Джулия Бет Штерн, Алекс Мэндел, Рэйчел Уиксом, Мэтт Кэллоуэй
    Описание: Когда восемь подростков, отправившихся весело провести выходные, сворачивают с трассы 66 к заброшенному парку развлечений, начинается кровавая бойня, устроенная психопатом убийцей по четкому плану.

    Качество видео: DVDRip
    Формат видео: AVI
    Видео: DivX 5 640x272 23.98fps 954Kbps
    Аудио: MPEG Audio Layer 3 48000Hz stereo 192Kbps


    Complete name : D:\TORRENTS\Killer Holiday.avi
    Format : AVI
    Format/Info : Audio Video Interleave
    File size : 738 MiB
    Duration : 1h 29mn
    Overall bit rate : 1 156 Kbps
    ID : 0
    Format : MPEG-4 Visual
    Format profile : Advanced Simple@L5
    Format settings, BVOP : 2
    Format settings, QPel : No
    Format settings, GMC : No warppoints
    Format settings, Matrix : Default (H.263)
    Codec ID : DX50
    Codec ID/Hint : DivX 5
    Duration : 1h 29mn
    Bit rate : 955 Kbps
    Width : 640 pixels
    Height : 272 pixels
    Display aspect ratio : 2.35:1
    Frame rate : 23.976 fps
    Color space : YUV
    Chroma subsampling : 4:2:0
    Bit depth : 8 bits
    Scan type : Progressive
    Compression mode : Lossy
    Bits/(Pixel*Frame) : 0.229
    Stream size : 610 MiB (83%)
    Writing library : XviD 64
    ID : 1
    Format : MPEG Audio
    Format version : Version 1
    Format profile : Layer 3
    Mode : Joint stereo
    Mode extension : MS Stereo
    Codec ID : 55
    Codec ID/Hint : MP3
    Duration : 1h 29mn
    Source duration : 1h 29mn
    Bit rate mode : Constant
    Bit rate : 192 Kbps
    Channel(s) : 2 channels
    Sampling rate : 48.0 KHz
    Compression mode : Lossy
    Stream size : 123 MiB (17%)
    Alignment : Aligned on interleaves
    Interleave, duration : 42 ms (1.00 video frame)
    Writing library : LAME3.99r
    Encoding settings : -m j -V 4 -q 3 -lowpass 18.6 -b 192

    Скриншот c названием фильма


    Download .torrent

    Download free and at maximum speed!

    How to Download? · What is a torrent? · Ratings and Limitations

    The site does not extend and does not store electronic(digital) versions of products, and only gives access to a reference catalogue created by users on torrent-files which contain only lists of the hash-sums, the earnest entreaty, with complaints(abuse) to access directly to the user. Files for an exchange on tracker are given by users of a site, and the administration does not bear the responsibility for their maintenance. The request to not fill in the files protected by copyrights, and also files of the illegal maintenance!

    [Profile] [PM]


    Post 19-Apr-2014 01:00 (after 3 months 29 days)


    Топик был перенесен из форума Зарубежные Фильмы (Новинки) в форум Фильмы 2011-2013


    Как бы ты высоко не летал, не забывай, с кем ты ползал..
    Display posts from previous:    
    Reply to topic

    The time now is: Today 08:57

    All times are GMT + 3 Hours

    You cannot post new topics in this forum
    You cannot reply to topics in this forum
    You cannot edit your posts in this forum
    You cannot delete your posts in this forum
    You cannot vote in polls in this forum
    You cannot attach files in this forum
    You cannot download files in this forum