BitTorrentTracker PerecTracker.org
BitTorrentTracker PerecTracker.org
    
Регистрация  ·  Вход
 
 · 
Забыли пароль?

  • Соблазнитель 2 / Kokowaah 2 (Тиль Швайгер / Til Schweiger, Торстен Кюнстлер / Torsten Kunstler) [2013, Германия, комедия, семейный, HDRip] Dub (Лицензия)

    Ответить на тему
     
    Автор Сообщение

    Columb

    Создавать темы 20-Дек-2013 19:44

           

    [Цитировать]

    Соблазнитель 2 / Kokowääh 2Год выпуска: 2013
    Страна: Германия
    Жанр: комедия, семейный
    Продолжительность: 02:02:27
    Перевод: Профессиональный (полное дублирование)[лицензия]
    Субтитры: Нет-Режиссер: Тиль Швайгер / Til Schweiger, Торстен Кюнстлер / Torsten Künstler-В ролях: Тиль Швайгер (Henry), Эмма Швайгер (Magdalena), Самуэль Финци (Tristan), Жасмин Герат (Katharina), Маурицио Магно (Nick), Маттиас Швайгхефер (Matthias), Михаэль Островский (Fichtlhuber), Яна Рейнерманн (Nadja), Гедеон Буркхард (Luc), Юлия Йенч (Nicks Mutter), Луна Швайгер (Samantha), Артур Абрахам (Bruder 2 VerkГ¤uferin)-Описание:
    Генри - в прошлом известный ловелас. Однако пришло время забыть о прежних привычках и стать прилежным семьянином. Дети, бывший муж Катарины, Тристан со своей привлекательной подружкой, молодая няня, истеричный директор студии - все они превращают жизнь Генри в череду смешных, порой неловких ситуаций. Как найти время на всех и в то же время побороть инстинкты, ведь вокруг столько соблазнов...-Рейтинг
    : 6.418 (3297)
    imdb.com: 5.10 (1096)-Качество: HDRip
    Формат: AVI
    Видео кодек: XviD
    Аудио кодек: MP3
    Видео: MPEG4, XviD, 640x272 (2.35:1), 23.976 fps, 715 Kbps (0.171 bit/pixel)
    Аудио: MP3 / 2.0 / 48 kHz / 128 kbps /--

    MI

    General
    Complete name : D:\Торенты\Соблазнитель 2. 2013. HDRip.avi
    Format : AVI
    Format/Info : Audio Video Interleave
    File size : 745 MiB
    Duration : 2h 2mn
    Overall bit rate : 851 Kbps
    Writing application : VirtualDubMod 1.5.10.3 | www.virtualdub-fr.org || (build 2550/release)
    Writing library : VirtualDubMod build 2550/release
    Video
    ID : 0
    Format : MPEG-4 Visual
    Format profile : Advanced Simple@L5
    Format settings, BVOP : 2
    Format settings, QPel : No
    Format settings, GMC : No warppoints
    Format settings, Matrix : Custom
    Codec ID : XVID
    Codec ID/Hint : XviD
    Duration : 2h 2mn
    Bit rate : 715 Kbps
    Width : 640 pixels
    Height : 272 pixels
    Display aspect ratio : 2.35:1
    Frame rate : 23.976 fps
    Color space : YUV
    Chroma subsampling : 4:2:0
    Bit depth : 8 bits
    Scan type : Progressive
    Compression mode : Lossy
    Bits/(Pixel*Frame) : 0.163
    Stream size : 596 MiB (80%)
    Writing library : XviD 1.2.1 (UTC 2008-12-04)
    Audio
    ID : 1
    Format : MPEG Audio
    Format version : Version 1
    Format profile : Layer 3
    Codec ID : 55
    Codec ID/Hint : MP3
    Duration : 2h 2mn
    Bit rate mode : Constant
    Bit rate : 128 Kbps
    Channel(s) : 2 channels
    Sampling rate : 48.0 KHz
    Compression mode : Lossy
    Stream size : 112 MiB (15%)
    Alignment : Aligned on interleaves
    Writing library : LAME3.99r
    Encoding settings : -m s -V 4 -q 2 -lowpass 17 -b 128

    Скриншоты

    Скачать .torrent

    Скачать торрент-файл бесплатно и на максимальной скорости!

    Как скачивать? · Что такое торрент? · Рейтинг и ограничения

    !ВНИМАНИЕ!
    Сайт не распространяет и не хранит электронные версии произведений, а занимается лишь лишь предоставлением доступа к создаваемому пользователями каталогу ссылок на торрент-файлы, которые содержат только списки хеш-сумм, убедительная просьба с жалобами обращаться напрямую к пользователю. Файлы для обмена на трекере предоставлены пользователями сайта, и администрация не несёт ответственности за их содержание. Просьба не заливать файлы, защищенные авторскими правами, а также файлы нелегального содержания!

    [Профиль] [ЛС]

    -746

    Создавать темы 19-Апр-2014 00:00 (спустя 3 месяца 29 дней)

           

    Топик был перенесен из форума Зарубежные Фильмы (Новинки) в форум Фильмы 2011-2013

    -sasha2006 

    _________________
    Как бы ты высоко не летал, не забывай, с кем ты ползал..
     
    Показать сообщения:    
    Ответить на тему

    Текущее время: Сегодня, в 08:02

    Часовой пояс: GMT + 2



    Вы не можете начинать темы
    Вы не можете отвечать на сообщения
    Вы не можете редактировать свои сообщения
    Вы не можете удалять свои сообщения
    Вы не можете голосовать в опросах
    Вы не можете прикреплять файлы к сообщениям
    Вы не можете скачивать файлы