BitTorrentTracker PerecTracker.org
BitTorrentTracker PerecTracker.org
    
Регистрация  ·  Вход
 
 · 
Забыли пароль?

  • Два ствола / 2 Guns (Бальтасар Кормакур / Baltasar Kormakur) [2013, США, боевик, триллер, драма, комедия, криминал, BDRip-AVC] Dub + 2xAVO + Original (Eng) + Sub (Rus, Eng)

    Ответить на тему
     
    Автор Сообщение

    Columb

    Создавать темы 20-Дек-2013 19:34

           

    [Цитировать]

    Два ствола / 2 Guns
    Страна: США
    Жанр: боевик, триллер, драма, комедия, криминал
    Год выпуска: 2013
    Продолжительность: 01:49:15
    Перевод#1: Профессиональный (дублированный) | BD CEE
    Перевод#2: Авторский (одноголосый закадровый), Ю. Сербин, без цензуры (отдельно)
    Перевод#3: Авторский (одноголосый закадровый), Л. Володарский (отдельно)
    Cубтитры: русские, английские
    Оригинальная аудиодорожка: английский
    Режиссер: Бальтасар Кормакур / Baltasar Kormakur
    В ролях: Дензел Вашингтон, Марк Уолберг, Пола Пэттон, Билл Пэкстон, Фред Уорд, Джеймс Марсден, Роберт Джон Бёрк, Фред Уорд, Патрик Фишлер, Лаки Джонсон
    Описание: Это история двух грабителей, которые на самом деле не те, кем кажутся. Один из них - агент из управления по борьбе с наркотиками, а другой - тайный агент разведки ВМС. Сами того не желая, они занимаются расследованием дел друг друга, а также воруют деньги у мафии. Через некоторое время героям придется украсть 50 миллионов долларов у ЦРУ...

    Доп. информация: за дороги благодарим пользователей и форума E180. Заставка в дубляже заменена
    Исходник: 2 Guns 2013 1080p Blu-ray Remux AVC DTS-HD MA 5.1 - KRaLiMaRKo
    Качество видео: BDRip-AVC | sample
    Формат видео: MKV
    Видео кодек: x264
    Видео: AVC 1152x480 (2.40:1), 23.976 fps, ~4500 Kbps, 0.34 bit/pixel
    Аудио #1: Russian AC3 6ch 48kHz 448Kbps | Dub BD CEE
    Аудио #2: English AC3 6ch 48kHz 448Kbps | Original
    Аудио #3: Russian AC3 6ch 48kHz 448Kbps | AVO Сербин (отдельным файлом)
    Аудио #4: Russian AC3 6ch 48kHz 448Kbps | AVO Володарский (отдельным файлом)
    Формат субтитров: softsub (SRT)
    Главы: есть

    MediaInfo | x264

    x264

    --[Information] [11.11.2013 22:17:51] raw [info]: 1152x480p 1:1 @ 24000/1001 fps (cfr)
    --[Information] [11.11.2013 22:17:51] x264 [info]: using SAR=1/1
    --[Information] [11.11.2013 22:17:51] x264 [info]: profile High, level 4.1
    --[Information] [11.11.2013 22:17:51] x264 [info]: cabac=1 ref=12 deblock=1:-3:-3 analyse=0x3:0x113 me=umh subme=11 psy=1 fade_compensate=0.00 psy_rd=1.00:0.00 mixed_ref=1 me_range=48 chroma_me=1 trellis=2 8x8dct=1 cqm=0 deadzone=21,11 fast_pskip=0 chroma_qp_offset=-2 threads=6 lookahead_threads=1 sliced_threads=0 nr=0 decimate=0 interlaced=0 bluray_compat=0 constrained_intra=0 bframes=14 b_pyramid=2 b_adapt=2 b_bias=0 direct=3 weightb=1 open_gop=0 weightp=2 keyint=240 keyint_min=23 scenecut=40 intra_refresh=0 rc_lookahead=0 rc=2pass mbtree=0 bitrate=4490 ratetol=1.0 qcomp=0.70 qpmin=0 qpmax=69 qpstep=4 cplxblur=20.0 qblur=0.5 vbv_maxrate=50000 vbv_bufsize=62500 nal_hrd=none ip_ratio=1.15 pb_ratio=1.15 aq=3:1.10 zones=148320,157170,q=30
    --[Information] [12.11.2013 8:22:29] x264 [info]: frame I:1306 Avg QP:16.94 size: 88952
    --[Information] [12.11.2013 8:22:29] x264 [info]: frame P:30747 Avg QP:18.41 size: 38495
    --[Information] [12.11.2013 8:22:29] x264 [info]: frame B:125118 Avg QP:18.30 size: 19009
    --[Information] [12.11.2013 8:22:29] x264 [info]: consecutive B-frames: 1.8% 1.7% 6.3% 13.5% 15.9% 39.8% 7.0% 5.7% 2.2% 1.3% 1.3% 1.1% 1.5% 0.6% 0.4%
    --[Information] [12.11.2013 8:22:29] x264 [info]: kb/s:4488.71
    General
    Complete name : E:\...\2.Guns.2013.BDRip.x264.DD5.1.Rus.Eng-E76.mkv
    Format : Matroska
    Format version : Version 2
    File size : 4.11 GiB
    Duration : 1h 49mn
    Overall bit rate : 5 387 Kbps
    Movie name : 2.Guns.2013.BDRip.x264.DD5.1.Rus.Eng-E76
    Encoded date : UTC 2013-12-19 22:41:16
    Writing application : mkvmerge v6.5.0 ('Isn't she lovely') built on Oct 20 2013 12:50:05
    Writing library : libebml v1.3.0 + libmatroska v1.4.1
    Video
    ID : 1
    Format : AVC
    Format/Info : Advanced Video Codec
    Format profile : High@L4.1
    Format settings, CABAC : Yes
    Format settings, ReFrames : 12 frames
    Codec ID : V_MPEG4/ISO/AVC
    Duration : 1h 49mn
    Bit rate : 4 490 Kbps
    Width : 1 152 pixels
    Height : 480 pixels
    Display aspect ratio : 2.40:1
    Frame rate mode : Constant
    Frame rate : 23.976 fps
    Color space : YUV
    Chroma subsampling : 4:2:0
    Bit depth : 8 bits
    Scan type : Progressive
    Bits/(Pixel*Frame) : 0.339
    Stream size : 3.35 GiB (81%)
    Title : Encode by Enclave76
    Writing library : x264 core 138 r2358kMod 9e941d1
    Encoding settings : cabac=1 / ref=12 / deblock=1:-3:-3 / analyse=0x3:0x113 / me=umh / subme=11 / psy=1 / fade_compensate=0.00 / psy_rd=1.00:0.00 / mixed_ref=1 / me_range=48 / chroma_me=1 / trellis=2 / 8x8dct=1 / cqm=0 / deadzone=21,11 / fast_pskip=0 / chroma_qp_offset=-2 / threads=6 / lookahead_threads=1 / sliced_threads=0 / nr=0 / decimate=0 / interlaced=0 / bluray_compat=0 / constrained_intra=0 / bframes=14 / b_pyramid=2 / b_adapt=2 / b_bias=0 / direct=3 / weightb=1 / open_gop=0 / weightp=2 / keyint=240 / keyint_min=23 / scenecut=40 / intra_refresh=0 / rc_lookahead=0 / rc=2pass / mbtree=0 / bitrate=4490 / ratetol=1.0 / qcomp=0.70 / qpmin=0 / qpmax=69 / qpstep=4 / cplxblur=20.0 / qblur=0.5 / vbv_maxrate=50000 / vbv_bufsize=62500 / nal_hrd=none / ip_ratio=1.15 / pb_ratio=1.15 / aq=3:1.10 / zones=148320,157170,q=30
    Language : English
    Default : Yes
    Forced : No
    Matrix coefficients : BT.709
    Audio #1
    ID : 2
    Format : AC-3
    Format/Info : Audio Coding 3
    Mode extension : CM (complete main)
    Format settings, Endianness : Big
    Codec ID : A_AC3
    Duration : 1h 49mn
    Bit rate mode : Constant
    Bit rate : 448 Kbps
    Channel(s) : 6 channels
    Channel positions : Front: L C R, Side: L R, LFE
    Sampling rate : 48.0 KHz
    Bit depth : 16 bits
    Compression mode : Lossy
    Stream size : 350 MiB (8%)
    Title : Dub BD CEE
    Language : Russian
    Default : Yes
    Forced : No
    Audio #2
    ID : 3
    Format : AC-3
    Format/Info : Audio Coding 3
    Mode extension : CM (complete main)
    Format settings, Endianness : Big
    Codec ID : A_AC3
    Duration : 1h 49mn
    Bit rate mode : Constant
    Bit rate : 448 Kbps
    Channel(s) : 6 channels
    Channel positions : Front: L C R, Side: L R, LFE
    Sampling rate : 48.0 KHz
    Bit depth : 16 bits
    Compression mode : Lossy
    Stream size : 350 MiB (8%)
    Title : Original
    Language : English
    Default : No
    Forced : No
    Text #1
    ID : 4
    Format : UTF-8
    Codec ID : S_TEXT/UTF8
    Codec ID/Info : UTF-8 Plain Text
    Title : Forced
    Language : Russian
    Default : Yes
    Forced : No
    Text #2
    ID : 5
    Format : UTF-8
    Codec ID : S_TEXT/UTF8
    Codec ID/Info : UTF-8 Plain Text
    Title : BD CEE
    Language : Russian
    Default : No
    Forced : No
    Text #3
    ID : 6
    Format : UTF-8
    Codec ID : S_TEXT/UTF8
    Codec ID/Info : UTF-8 Plain Text
    Title : voronine
    Language : Russian
    Default : No
    Forced : No
    Text #4
    ID : 7
    Format : UTF-8
    Codec ID : S_TEXT/UTF8
    Codec ID/Info : UTF-8 Plain Text
    Language : English
    Default : No
    Forced : No
    Text #5
    ID : 8
    Format : UTF-8
    Codec ID : S_TEXT/UTF8
    Codec ID/Info : UTF-8 Plain Text
    Title : SDH
    Language : English
    Default : No
    Forced : No
    Menu
    00:00:00.000 : en:Chapter 01
    00:05:36.044 : en:Chapter 02
    ...
    01:41:02.639 : en:Chapter 20

    Скриншоты





    vs source
    Скачать .torrent

    Скачать торрент-файл бесплатно и на максимальной скорости!

    Как скачивать? · Что такое торрент? · Рейтинг и ограничения

    !ВНИМАНИЕ!
    Сайт не распространяет и не хранит электронные версии произведений, а занимается лишь лишь предоставлением доступа к создаваемому пользователями каталогу ссылок на торрент-файлы, которые содержат только списки хеш-сумм, убедительная просьба с жалобами обращаться напрямую к пользователю. Файлы для обмена на трекере предоставлены пользователями сайта, и администрация не несёт ответственности за их содержание. Просьба не заливать файлы, защищенные авторскими правами, а также файлы нелегального содержания!

    [Профиль] [ЛС]

    -746

    Создавать темы 19-Апр-2014 00:00 (спустя 3 месяца 29 дней)

           

    Топик был перенесен из форума Зарубежные Фильмы (Новинки) в форум Фильмы 2011-2013

    -sasha2006 

    _________________
    Как бы ты высоко не летал, не забывай, с кем ты ползал..
     
    Показать сообщения:    
    Ответить на тему

    Текущее время: Сегодня, в 16:41

    Часовой пояс: GMT + 2



    Вы не можете начинать темы
    Вы не можете отвечать на сообщения
    Вы не можете редактировать свои сообщения
    Вы не можете удалять свои сообщения
    Вы не можете голосовать в опросах
    Вы не можете прикреплять файлы к сообщениям
    Вы не можете скачивать файлы