BitTorrentTracker PerecTracker.org
BitTorrentTracker PerecTracker.org
    
Регистрация  ·  Вход
 
 · 
Забыли пароль?

  • Мастера Секса / Masters of Sex / Сезон: 1 / Серии: 1-12 (12) (Дон Рус, Дэн Букатинский) [2013, драма, HDTVRip / WEBRip / WEB-DLRip] MVO (BaibaKo)

    Ответить на тему
     
    Автор Сообщение

    rechyn

    Создавать темы 19-Дек-2013 21:46

           

    [Цитировать]

    Мастера Секса / Masters of Sex-Cлоган: «Arousing America's Curiosity»Год выпуска: 2013
    Страна: США | ShowTime
    Жанр: драма
    Продолжительность: 01:01:25
    Перевод: Профессиональный (многолосый закадровый) BaibaKo
    Русские субтитры: нет-Режиссёры: Дон Рус, Дэн Букатинский и др.
    Премьера (мир): 29 сентября 2013
    Премьера (РФ): 2 октября 2013

    В ролях: Майкл Шин, Лиззи Каплан, Николас Д’Агосто, Кэйтлин Фицджералд, Тедди Сирс, Хелен Йорк, Кайла Мэдисон, Билл Лэйн, Коул Сэнд, Кристофер Клауси и др.
    Описание: Сериал Мастера секса является экранизацией книги Томаса Майера с претенциозным названием «Мастера секса: Жизнь и время Уильяма Мастерса и Вирджинии Джонсон, пары, которая учила Америку любить». Это история жизни людей, которые проводят постоянные исследования человеческой сексуальности и попробуют их на себе. Это сериал об отношениях между Уильямом (Майкл Шин) и Вирджинией (Лиззи Каплан), которые были первопроходцами в этой теме. Исследователи – сексологи решают выяснить, что в мире может доставить невероятное удовольствие, и что при этом происходит в головном мозге, при достижении этого самого удовольствия. Действие сериала происходит в Америке в 60-е годы прошлого столетия.-Качество: HDTVRip / WEBRip / WEB-DLRip
    Формат: AVI
    Видео кодек: XviD
    Аудио кодек: MP3
    Видео: 720x400 (16:9), 23.976 fps, 1527 kbps, 0.221 bit/pixel
    Аудио 1: 48 kHz, 2 ch, 192 kbps - BaibaKo
    Аудио 2: 48 kHz, 2 ch, 192 kbps - English-Релиз:

    Перевод: Янина Галицкая.
    Озвучание: Ольга Мотрич, Юлия Котурбаш, Сергей Корчак и Артемий Мирон.
    Внимание! В сериале присутствует ненормативная лексика и откровенные сцены!-Сэмпл | TVRage-

    Список серий

    01. Pilot / Пилот.
    02. Race to Space / Улет.
    03. Standard Deviation / Отклонение от нормы.
    04. Thank You For Coming / Спасибо, что пришли.
    05. Catherine / Кэтрин.
    06. Brave New World / О дивный новый мир.
    07. All Together Now / Теперь все вместе.
    08. Love and Marriage / Любовь и супружество.
    09. Involuntary / Неепроизвольное.
    10. Fallout / Радиоактивные осадки.
    11. Phallic Victories / Фаллические победы.
    12. Manhigh / Проект Мэнхай.

    Скриншоты



    MI

    HDTVRip

    Общее:Формат : AVIФормат/Информация : Audio Video InterleaveРазмер файла : 846 МбайтПродолжительность : 1 ч. 1 м.Общий поток : 1925 Кбит/секПрограмма кодирования : VirtualDubMod 1.5.10.2 (build 2542/release)Библиотека кодирования : VirtualDubMod build 2542/release
    Видео:Формат : MPEG-4 VisualПрофиль формата : Advanced Simple@L5Параметр BVOP формата : 2Параметр QPel формата : НетПараметр GMC формата : Без точки переходаПараметр матрицы формата : Default (H.263)Идентификатор кодека : XVIDИдентификатор кодека/Подсказка : XviDПродолжительность : 1 ч. 1 м.Битрейт : 1527 Кбит/секШирина : 720 пикселейВысота : 400 пикселейСоотношение сторон : 16:9Частота кадров : 23,976 кадра/секЦветовое пространство : YUVСубдискретизация насыщенности : 4:2:0Битовая глубина : 8 битТип развёртки : ПрогрессивнаяМетод сжатия : С потерямиБит/(Пиксели*Кадры) : 0.221Размер потока : 671 Мбайт (79%)Библиотека кодирования : XviD 1.2.1 (UTC 2008-12-04)
    Аудио #1:Формат : MPEG AudioВерсия формата : Version 1Профиль формата : Layer 3Режим : Joint stereoРасширение режима : MS StereoИдентификатор кодека : 55Идентификатор кодека/Подсказка : MP3Продолжительность : 1 ч. 1 м.Вид битрейта : ПостоянныйБитрейт : 192 Кбит/секКаналы : 2 каналаЧастота : 48,0 КГцМетод сжатия : С потерямиРазмер потока : 84,3 Мбайт (10%)Выравнивание : Соединение по промежуткамПродолжительность промежутка : 42 мс. (1,00 видеокадр)Время предзагрузки промежутка : 504 мс.Библиотека кодирования : LAME3.99rНастройки программы : -m j -V 4 -q 2 -lowpass 18.6 -b 192
    Аудио #2:Идентификатор : 2Формат : MPEG AudioВерсия формата : Version 1Профиль формата : Layer 3Режим : Joint stereoРасширение режима : MS StereoИдентификатор кодека : 55Идентификатор кодека/Подсказка : MP3Продолжительность : 1 ч. 1 м.Вид битрейта : ПостоянныйБитрейт : 192 Кбит/секКаналы : 2 каналаЧастота : 48,0 КГцМетод сжатия : С потерямиРазмер потока : 84,3 Мбайт (10%)Выравнивание : Соединение по промежуткамПродолжительность промежутка : 42 мс. (1,00 видеокадр)Время предзагрузки промежутка : 504 мс.Библиотека кодирования : LAME3.99rНастройки программы : -m j -V 4 -q 2 -lowpass 18.6 -b 192

    WEBRip

    Общее:Формат : AVIФормат/Информация : Audio Video InterleaveРазмер файла : 934 МбайтПродолжительность : 54 м.Общий поток : 2399 Кбит/секПрограмма кодирования : VirtualDubMod 1.5.10.2 (build 2542/release)Библиотека кодирования : VirtualDubMod build 2542/release
    Видео:Формат : MPEG-4 VisualПрофиль формата : Advanced Simple@L5Параметр BVOP формата : 2Параметр QPel формата : НетПараметр GMC формата : Без точки переходаПараметр матрицы формата : Default (H.263)Идентификатор кодека : XVIDИдентификатор кодека/Подсказка : XviDПродолжительность : 54 м.Битрейт : 2001 Кбит/секШирина : 720 пикселейВысота : 400 пикселейСоотношение сторон : 16:9Частота кадров : 23,976 кадра/секЦветовое пространство : YUVСубдискретизация насыщенности : 4:2:0Битовая глубина : 8 битТип развёртки : ПрогрессивнаяМетод сжатия : С потерямиБит/(Пиксели*Кадры) : 0.290Размер потока : 779 Мбайт (83%)Библиотека кодирования : XviD 1.2.1 (UTC 2008-12-04)
    Аудио #1:Формат : MPEG AudioВерсия формата : Version 1Профиль формата : Layer 3Режим : Joint stereoРасширение режима : MS StereoИдентификатор кодека : 55Идентификатор кодека/Подсказка : MP3Продолжительность : 54 м.Вид битрейта : ПостоянныйБитрейт : 192 Кбит/секКаналы : 2 каналаЧастота : 48,0 КГцМетод сжатия : С потерямиРазмер потока : 74,8 Мбайт (8%)Выравнивание : Соединение по промежуткамПродолжительность промежутка : 42 мс. (1,00 видеокадр)Время предзагрузки промежутка : 504 мс.Библиотека кодирования : LAME3.99rНастройки программы : -m j -V 4 -q 2 -lowpass 18.6 -b 192
    Аудио #2:Формат : MPEG AudioВерсия формата : Version 1Профиль формата : Layer 3Режим : Joint stereoРасширение режима : MS StereoИдентификатор кодека : 55Идентификатор кодека/Подсказка : MP3Продолжительность : 54 м.Вид битрейта : ПостоянныйБитрейт : 192 Кбит/секКаналы : 2 каналаЧастота : 48,0 КГцМетод сжатия : С потерямиРазмер потока : 74,8 Мбайт (8%)Выравнивание : Соединение по промежуткамПродолжительность промежутка : 42 мс. (1,00 видеокадр)Время предзагрузки промежутка : 504 мс.Библиотека кодирования : LAME3.99rНастройки программы : -m j -V 4 -q 2 -lowpass 18.6 -b 192

    WEB-DLRip

    Общее:Формат : AVIФормат/Информация : Audio Video InterleaveРазмер файла : 778 МбайтПродолжительность : 56 м.Общий поток : 1916 Кбит/секПрограмма кодирования : VirtualDubMod 1.5.10.2 (build 2542/release)Библиотека кодирования : VirtualDubMod build 2542/release
    Видео:Формат : MPEG-4 VisualПрофиль формата : Advanced Simple@L5Параметр BVOP формата : 2Параметр QPel формата : НетПараметр GMC формата : Без точки переходаПараметр матрицы формата : Default (H.263)Идентификатор кодека : XVIDИдентификатор кодека/Подсказка : XviDПродолжительность : 56 м.Битрейт : 1518 Кбит/секШирина : 720 пикселейВысота : 400 пикселейСоотношение сторон : 16:9Частота кадров : 23,976 кадра/секЦветовое пространство : YUVСубдискретизация насыщенности : 4:2:0Битовая глубина : 8 битТип развёртки : ПрогрессивнаяМетод сжатия : С потерямиБит/(Пиксели*Кадры) : 0.220Размер потока : 616 Мбайт (79%)Библиотека кодирования : XviD 1.2.1 (UTC 2008-12-04)
    Аудио #1:Формат : MPEG AudioВерсия формата : Version 1Профиль формата : Layer 3Режим : Joint stereoРасширение режима : MS StereoИдентификатор кодека : 55Идентификатор кодека/Подсказка : MP3Продолжительность : 56 м.Вид битрейта : ПостоянныйБитрейт : 192 Кбит/секКаналы : 2 каналаЧастота : 48,0 КГцМетод сжатия : С потерямиРазмер потока : 77,9 Мбайт (10%)Выравнивание : Разделение по промежуткамПродолжительность промежутка : 42 мс. (1,00 видеокадр)Время предзагрузки промежутка : 500 мс.Библиотека кодирования : LAME3.99rНастройки программы : -m j -V 4 -q 2 -lowpass 18.6 -b 192
    Аудио #2:Формат : MPEG AudioВерсия формата : Version 1Профиль формата : Layer 3Режим : Joint stereoРасширение режима : MS StereoИдентификатор кодека : 55Идентификатор кодека/Подсказка : MP3Продолжительность : 56 м.Вид битрейта : ПостоянныйБитрейт : 192 Кбит/секКаналы : 2 каналаЧастота : 48,0 КГцМетод сжатия : С потерямиРазмер потока : 77,9 Мбайт (10%)Выравнивание : Разделение по промежуткамПродолжительность промежутка : 42 мс. (1,00 видеокадр)Время предзагрузки промежутка : 500 мс.Библиотека кодирования : LAME3.99rНастройки программы : -m j -V 4 -q 2 -lowpass 18.6 -b 192

    Внимание! Раздача ведётся путём добавления новых серий

    Внимание! Раздача ведётся путём добавления новых серий; при каждом добавлении создаётся новый торрент. Чтобы начать докачку новой серии, пользователям необходимо сделать следующее:
    (1) остановить скачивание,
    (2) удалить старый торрент у себя из клиента (старые серии удалять не надо),
    (3) скачать новый торрент и запустить его у себя в клиенте вместо старого, при этом указать клиенту путь в старую папку куда и должно происходить скачивание новых серий.
    Ваш клиент при этом должен произвести хеширование (проверку) старой папки (если не производит сам - помогите ему сделать это), и будет докачивать только те серии которых у вас ещё нет. Старые серии при этом не удаляются, а продолжают раздаваться!
    Eсли вы уже удалили старые серии, то предотвратить повторную закачку старых серий можно, отжав галочку в соответствующих местах при запуске нового торрента. По возможности, желательно не удалять старые серии как можно дольше чтобы релизёр не столько продолжал раздавать старые серии, а смог сконцентрироваться на новых.
    Скачать .torrent

    Скачать торрент-файл бесплатно и на максимальной скорости!

    Как скачивать? · Что такое торрент? · Рейтинг и ограничения

    !ВНИМАНИЕ!
    Сайт не распространяет и не хранит электронные версии произведений, а занимается лишь лишь предоставлением доступа к создаваемому пользователями каталогу ссылок на торрент-файлы, которые содержат только списки хеш-сумм, убедительная просьба с жалобами обращаться напрямую к пользователю. Файлы для обмена на трекере предоставлены пользователями сайта, и администрация не несёт ответственности за их содержание. Просьба не заливать файлы, защищенные авторскими правами, а также файлы нелегального содержания!


    _________________
    [Профиль] [ЛС]
    Показать сообщения:    
    Ответить на тему

    Текущее время: Сегодня, в 09:57

    Часовой пояс: GMT + 2



    Вы не можете начинать темы
    Вы не можете отвечать на сообщения
    Вы не можете редактировать свои сообщения
    Вы не можете удалять свои сообщения
    Вы не можете голосовать в опросах
    Вы не можете прикреплять файлы к сообщениям
    Вы не можете скачивать файлы