BitTorrentTracker PerecTracker.org
BitTorrentTracker PerecTracker.org
    
Регистрация  ·  Вход
 
 · 
Забыли пароль?

  • Южный Парк / South Park / Сезон: 17 / Серии: 1-9 из 10 (Трей Паркер / Trey Parker, Мэтт Стоун / Matt Stone) [2013, мультсериал, комедия, WEB-DLRip] Dvo [Paramount Comedy ex-MTV] + Eng + Sub (rus, eng)

    Ответить на тему
     
    Автор Сообщение

    Columb

    Создавать темы 18-Дек-2013 22:39

           

    [Цитировать]

    Южный Парк / South ParkСтрана: США
    Жанр: мультсериал, комедия
    Продолжительность: ~ 00:23:00
    Год выпуска: 2013
    Перевод: Профессиональный (двухголосый закадровый)- "Paramount Comedy" ex-MTV
    Русские субтитры: Есть
    Режиссёр: Трей Паркер / Trey Parker, Мэтт Стоун / Matt Stone
    Описание: Основу сюжета составляют сюрреалистические приключения четырёх мальчиков и их друзей, живущих в маленьком городке Саус Парк, штат Колорадо. Сериал высмеивает американскую культуру и текущие мировые события, а также подвергает критике множество глубоких убеждений и табу, благодаря пародии и чёрному юмору.
    Список серий:
    01. Let Go Let Gov
    02. Informative Murder Porn
    03. World War Zimmerman
    04. Goth Kids 3 Dawn of the Posers
    05. Taming Strange
    06. Ginger Cow
    07. Black Friday
    08. A Song of Ass and Fire
    09. Titties and Dragons

    Качество: WEB-DLRip
    Формат: AVI
    Видео: 720x400 (1.80:1), 23.976 fps, XviD build 65 ~1800 kbps avg, 0.26 bit/pixel
    Аудио: 48 kHz, AC3 Dolby Digital, 2/0 (L,R) ch, ~192 kbps - Rus
    Аудио 2: 48 kHz, AC3 Dolby Digital, 2/0 (L,R) ch, ~192 kbps - Eng
    Субтитры: Русские (Srt), Английские (Srt)

    Подробные технические данные

    Format : AVIFormat/Info : Audio Video InterleaveFile size : 350 MiBDuration : 22mn 10sOverall bit rate : 2 210 KbpsWriting application : VirtualDubMod 1.5.10.3 | www.virtualdub-fr.org || (build 2550/release)Writing library : VirtualDubMod build 2550/release
    VideoID : 0Format : MPEG-4 VisualFormat profile : Advanced Simple@L5Format settings, BVOP : 2Format settings, QPel : NoFormat settings, GMC : No warppointsFormat settings, Matrix : CustomCodec ID : XVIDCodec ID/Hint : XviDDuration : 22mn 10sBit rate : 1 812 KbpsWidth : 720 pixelsHeight : 400 pixelsDisplay aspect ratio : 16:9Frame rate : 23.976 fpsColor space : YUVChroma subsampling : 4:2:0Bit depth : 8 bitsScan type : ProgressiveCompression mode : LossyBits/(Pixel*Frame) : 0.262Stream size : 287 MiB (82%)Writing library : XviD 65
    Audio #1ID : 1Format : AC-3Format/Info : Audio Coding 3Mode extension : CM (complete main)Format settings, Endianness : BigCodec ID : 2000Duration : 22mn 10sBit rate mode : ConstantBit rate : 192 KbpsChannel(s) : 2 channelsChannel positions : Front: L RSampling rate : 48.0 KHzBit depth : 16 bitsCompression mode : LossyStream size : 30.4 MiB (9%)Alignment : Split accross interleavesInterleave, duration : 42 ms (1.00 video frame)Interleave, preload duration : 500 ms
    Audio #2ID : 2Format : AC-3Format/Info : Audio Coding 3Mode extension : CM (complete main)Format settings, Endianness : BigCodec ID : 2000Duration : 22mn 10sBit rate mode : ConstantBit rate : 192 KbpsChannel(s) : 2 channelsChannel positions : Front: L RSampling rate : 48.0 KHzBit depth : 16 bitsCompression mode : LossyStream size : 30.4 MiB (9%)Alignment : Split accross interleavesInterleave, duration : 42 ms (1.00 video frame)Interleave, preload duration : 500 ms
    Скачать .torrent

    Скачать торрент-файл бесплатно и на максимальной скорости!

    Как скачивать? · Что такое торрент? · Рейтинг и ограничения

    !ВНИМАНИЕ!
    Сайт не распространяет и не хранит электронные версии произведений, а занимается лишь лишь предоставлением доступа к создаваемому пользователями каталогу ссылок на торрент-файлы, которые содержат только списки хеш-сумм, убедительная просьба с жалобами обращаться напрямую к пользователю. Файлы для обмена на трекере предоставлены пользователями сайта, и администрация не несёт ответственности за их содержание. Просьба не заливать файлы, защищенные авторскими правами, а также файлы нелегального содержания!

    [Профиль] [ЛС]
    Показать сообщения:    
    Ответить на тему

    Текущее время: Сегодня, в 04:20

    Часовой пояс: GMT + 2



    Вы не можете начинать темы
    Вы не можете отвечать на сообщения
    Вы не можете редактировать свои сообщения
    Вы не можете удалять свои сообщения
    Вы не можете голосовать в опросах
    Вы не можете прикреплять файлы к сообщениям
    Вы не можете скачивать файлы