BitTorrentTracker PerecTracker.org
BitTorrentTracker PerecTracker.org
    
Регистрация  ·  Вход
 
 · 
Забыли пароль?

  • Соблазнитель 2 / Kokowääh 2 (Тиль Швайгер, Торстен Кюнстлер / Til Schweiger, Torsten Künstler) [2013, Германия, комедия, семейный, DVD9] R5 Dub

    Ответить на тему
     
    Автор Сообщение

    Columb

    Создавать темы 18-Дек-2013 22:31

           

    [Цитировать]

    -Соблазнитель 2 / Kokowääh 2-«Ты готов ко второму раунду?»-Страна: Германия
    Студия: Béla Jarzyk Production, barefoot films, Warner Bros. Film Productions Germany
    Жанр: комедия, семейный
    Год выпуска: 2013
    Мировая премьера: 7 февраля 2013
    Российская премьера: 20 июня 2013, «A Company», «Двадцатый Век Фокс СНГ»
    Дата выхода DVD: 19 Декабря 2013, «Lizard Cinema Trade»
    Продолжительность: 01:58:17
    Перевод: Профессиональный (дублированный) [Лицензия]
    Cубтитры: нет
    Оригинальная аудиодорожка: нет-Режиссер: Тиль Швайгер, Торстен Кюнстлер / Til Schweiger, Torsten Künstler-В ролях: Тиль Швайгер, Эмма Швайгер, Самуэль Финци, Жасмин Герат, Маурицио Магно, Маттиас Швайгхефер, Михаэль Островский, Яна Рейнерманн, Гедеон Буркхард, Юлия Йенч...-Описание: Генри — в прошлом известный ловелас. Однако пришло время забыть о прежних привычках и стать прилежным семьянином. Дети, бывший муж Катарины, Тристан со своей привлекательной подружкой, молодая няня, истеричный директор студии — все они превращают жизнь Генри в череду смешных, порой неловких ситуаций. Как найти время на всех и в то же время побороть инстинкты, ведь вокруг столько соблазнов…-Бонусы: нет- -Релиз группы:-Качество: DVD9 R5
    Формат: DVD-Video
    Видео кодек: MPEG2
    Аудио кодек: AC3 + DTS
    Видео: PAL 16:9 (720x576(0.597)) MPEG Video, 25,000 кадр/сек, 6185 Кбит/сек
    Аудио #1: Russian (Dolby AC3, 6 ch) 448 Кбит/сек, 48,0 КГц
    Аудио #2: Russian (DTS, 5 ch) 768 Кбит/сек, 48,0 КГц--

    DVDInfo

    Title: Soblaznitel.2.2013.DVD9
    Size: 6.34 Gb ( 6 649 162,00 KBytes ) - DVD-9
    Enabled regions: 1, 2, 3, 4, 5, 6, 7, 8
    VTS_01 :
    Play Length: 00:00:25+{00:00:25}+{00:00:25}
    Video: PAL 4:3 (720x576) VBR
    Audio:
    Russian (Dolby AC3, 6 ch)
    English (Dolby AC3, 6 ch)
    English (Dolby AC3, 6 ch)
    VTS_02 :
    Play Length: 01:58:17
    Video: PAL 16:9 (720x576) VBR, Auto Pan&Scan, Auto Letterboxed
    Audio:
    Russian (Dolby AC3, 6 ch)
    Russian (DTS, 5 ch)
    * Menus Information *
    VIDEO_TS Menu
    Video:
    PAL 4:3 (720x576) VBR
    English Language Unit :
    Title Menu
    VTS_01 Menu
    Video:
    PAL 4:3 (720x576) VBR
    Audio:
    Not specified (Dolby AC3, 2 ch)
    English Language Unit :
    Root Menu
    Chapter (PTT) Menu
    VTS_02 Menu
    Video:
    PAL 4:3 (720x576) VBR
    English Language Unit :
    Root Menu
    Audio Menu
    Chapter (PTT) Menu

    MediaInfo

    Общее
    Полное имя : K:\Новинки 2013\Soblaznitel.2.2013.DVD9\VIDEO_TS\VTS_02_2.VOB
    Формат : MPEG-PS
    Размер файла : 1024 Мбайт
    Продолжительность : 18 м.
    Режим общего битрейта : Переменный
    Общий поток : 7537 Кбит/сек
    Видео
    Идентификатор : 224 (0xE0)
    Формат : MPEG Video
    Версия формата : Version 2
    Профиль формата : Main@Main
    Параметр BVOP формата : Да
    Параметр матрицы формата : Выборочная
    Параметр GOP формата : Variable
    Продолжительность : 18 м.
    Вид битрейта : Переменный
    Битрейт : 6185 Кбит/сек
    Максимальный битрейт : 8000 Кбит/сек
    Ширина : 720 пикселей
    Высота : 576 пикселей
    Соотношение сторон : 16:9
    Частота кадров : 25,000 кадров/сек
    Стандарт вещания : PAL
    Цветовое пространство : YUV
    Субдискретизация насыщенности : 4:2:0
    Битовая глубина : 8 бит
    Тип развёртки : Прогрессивная
    Метод сжатия : С потерями
    Бит/(Пиксели*Кадры) : 0.597
    Временной код первого кадра : 00:20:31:14
    Оригинал временного кода : Group of pictures header
    Размер потока : 840 Мбайт (82%)
    Аудио #1
    Идентификатор : 189 (0xBD)-128 (0x80)
    Формат : AC-3
    Формат/Информация : Audio Coding 3
    Расширение режима : CM (complete main)
    Параметр Endianness формата : Big
    Режим смешивания : DVD-Video
    Продолжительность : 18 м.
    Вид битрейта : Постоянный
    Битрейт : 448 Кбит/сек
    Каналы : 6 каналов
    Расположение каналов : Front: L C R, Side: L R, LFE
    Частота : 48,0 КГц
    Битовая глубина : 16 бит
    Метод сжатия : С потерями
    Задержка видео : -472 мс.
    Размер потока : 60,9 Мбайт (6%)
    Аудио #2
    Идентификатор : 189 (0xBD)-137 (0x89)
    Формат : DTS
    Формат/Информация : Digital Theater Systems
    Режим : 16
    Параметр Endianness формата : Big
    Режим смешивания : DVD-Video
    Продолжительность : 18 м.
    Вид битрейта : Постоянный
    Битрейт : 755 Кбит/сек
    Каналы : 6 каналов
    Расположение каналов : Front: L C R, Side: L R, LFE
    Частота : 48,0 КГц
    Битовая глубина : 24 бит
    Метод сжатия : С потерями
    Задержка видео : -515 мс.
    Размер потока : 103 Мбайт (10%)

    Скриншоты меню

    Скриншоты фильма

    -
    Скачать .torrent

    Скачать торрент-файл бесплатно и на максимальной скорости!

    Как скачивать? · Что такое торрент? · Рейтинг и ограничения

    !ВНИМАНИЕ!
    Сайт не распространяет и не хранит электронные версии произведений, а занимается лишь лишь предоставлением доступа к создаваемому пользователями каталогу ссылок на торрент-файлы, которые содержат только списки хеш-сумм, убедительная просьба с жалобами обращаться напрямую к пользователю. Файлы для обмена на трекере предоставлены пользователями сайта, и администрация не несёт ответственности за их содержание. Просьба не заливать файлы, защищенные авторскими правами, а также файлы нелегального содержания!

    [Профиль] [ЛС]
    Показать сообщения:    
    Ответить на тему

    Текущее время: Сегодня, в 19:39

    Часовой пояс: GMT + 2



    Вы не можете начинать темы
    Вы не можете отвечать на сообщения
    Вы не можете редактировать свои сообщения
    Вы не можете удалять свои сообщения
    Вы не можете голосовать в опросах
    Вы не можете прикреплять файлы к сообщениям
    Вы не можете скачивать файлы