Register  ·  Log in
Forgot password?

  • Одноклассники.ru: НаCLICKай удачу (Павел Худяков) [2013, комедия, TeleSynch]

    Reply to topic
    Author Message


    Post 18-Dec-2013 23:22



    Одноклассники.ru: НаCLICKай удачу--Жанр: комедия
    Выпущено: Россия / Худяков production
    Год выпуска: 2013
    Продолжительность: 01:28:40
    Озвучивание: Оригинальное-Режиссёр: Павел Худяков-В ролях: Пётр Фёдоров, Фёдор Бондарчук, Корнелия Поляк, Сергей Друзьяк, Тимати, Снуп Догг, Сергей Никоненко, Александр Ревва, Ольга Тумайкина, Семён Стругачев-Описание: Круто, когда есть кнопка, на которую жмешь, и все становится по-твоему! Именно такая попала в руки молодому креативщику и тотальному неудачнику Леше. Теперь у него высокооплачиваемая работа, дорогая машина, стильный гардероб и, конечно, идеальная девушка. Достаточно одного клика! Просто надо знать, куда жать!-Доп. информация: Субтитры: Украинские вшитые-Сэмпл:Качество видео: TeleSynch
    Формат видео: AVI
    Видео: 720x256 (2.81:1), 25 fps, XviD build 50 ~2053 kbps avg, 0.45 bit/pixel
    Аудио: 48 kHz, MPEG Layer 3, 2 ch, ~128.00 kbps avg


    Complete name : D:\
    Format : AVI
    Format/Info : Audio Video Interleave
    File size : 1.36 GiB
    Duration : 1h 28mn
    Overall bit rate : 2 192 Kbps
    Writing application : VirtualDubMod | || (build 2550/release)
    Writing library : VirtualDubMod build 2550/release
    ID : 0
    Format : MPEG-4 Visual
    Format profile : Advanced Simple@L5
    Format settings, BVOP : Yes
    Format settings, QPel : No
    Format settings, GMC : No warppoints
    Format settings, Matrix : Default (MPEG)
    Codec ID : XVID
    Codec ID/Hint : XviD
    Duration : 1h 28mn
    Bit rate : 1 968 Kbps
    Width : 720 pixels
    Height : 256 pixels
    Display aspect ratio : 2.813
    Frame rate : 25.000 fps
    Color space : YUV
    Chroma subsampling : 4:2:0
    Bit depth : 8 bits
    Scan type : Progressive
    Compression mode : Lossy
    Bits/(Pixel*Frame) : 0.427
    Stream size : 1.22 GiB (90%)
    Writing library : XviD 1.2.1 (UTC 2008-12-04)
    ID : 1
    Format : MPEG Audio
    Format version : Version 1
    Format profile : Layer 3
    Codec ID : 55
    Codec ID/Hint : MP3
    Duration : 1h 28mn
    Bit rate mode : Constant
    Bit rate : 128 Kbps
    Channel count : 2 channels
    Sampling rate : 48.0 KHz
    Compression mode : Lossy
    Stream size : 81.2 MiB (6%)
    Alignment : Aligned on interleaves
    Writing library : LAME3.99r
    Encoding settings : -m s -V 4 -q 2 -lowpass 17 -b 128


    Download .torrent

    Download free and at maximum speed!

    How to Download? · What is a torrent? · Ratings and Limitations

    The site does not extend and does not store electronic(digital) versions of products, and only gives access to a reference catalogue created by users on torrent-files which contain only lists of the hash-sums, the earnest entreaty, with complaints(abuse) to access directly to the user. Files for an exchange on tracker are given by users of a site, and the administration does not bear the responsibility for their maintenance. The request to not fill in the files protected by copyrights, and also files of the illegal maintenance!

    [Profile] [PM]


    Post 19-Apr-2014 01:02 (after 4 months)


    Топик был перенесен из форума Отечественные Фильмы (Новинки) в форум Наше кино


    Как бы ты высоко не летал, не забывай, с кем ты ползал..
    Display posts from previous:    
    Reply to topic

    The time now is: Today 02:51

    All times are GMT + 3 Hours

    You cannot post new topics in this forum
    You cannot reply to topics in this forum
    You cannot edit your posts in this forum
    You cannot delete your posts in this forum
    You cannot vote in polls in this forum
    You cannot attach files in this forum
    You cannot download files in this forum