BitTorrentTracker PerecTracker.org
BitTorrentTracker PerecTracker.org
    
Регистрация  ·  Вход
 
 · 
Забыли пароль?

  • Предполагаемый убийца / Assumed Killer / Assumed Memories (Бернард Зальцманн / Bernard Salzmann) [2013, США, триллер, DVB] DVO (НТВ+)

    Ответить на тему
     
    Автор Сообщение

    Columb

    Создавать темы 18-Дек-2013 20:06

           

    [Цитировать]

    Предполагаемый убийца
    Assumed Killer / Assumed Memories-Страна: США
    Жанр: триллер
    Год выпуска: 2013
    Продолжительность: 01:23:16Перевод: Профессиональный (двухголосый закадровый) (НТВ+, перевод Елены Колобовой,
    текст читают Елена Солодилина, Игорь Тарадайкин)
    Cубтитры: нет
    Режиссер: Бернард Зальцманн / Bernard Salzmann
    В ролях: Каспер Ван Дин / Casper Van Dien (Sam Morrow), Барби Кастро / Barbie Castro (Daria Valdez Morrow), Арманд Ассанте / Armand Assante (Aaron Banfield), Эрик Робертс / Eric Roberts (Taxi Driver), Кристи Линн Смит / Christie Lynn Smith (Sara)
    Описание: Криминальный репортёр Дарья Вальдес Морроу попадает в автокатастрофу. Когда она приходит в себя, то обнаруживает, что потеряла память. В состоянии амнезии женщине начинает казаться, что её муж - серийный убийца... (анонс канала "Премьера")
    Доп. информация: Запись со спутника (телеканал "Премьера").

    Сэмпл: http://multi-up.com/933559
    Качество видео: DVB
    Формат видео: MPEG-PS
    Видео: MPEG Video 2, 720x576@1024x576 (16:9), 25 fps, ~1884 kbps avg, 0.182 bit/pixel
    Аудио: 48 kHz, MPEG Audio 2, 2 ch, ~192.00 kbps avg

    MediaInfo

    Полное имя : H:\My Torrents\[apreder]Assumed_Killer(2013)DVB.mpgФормат : MPEG-PSРазмер файла : 1,23 ГбайтПродолжительность : 1 ч. 23 м.Режим общего битрейта : ПеременныйОбщий поток : 2118 Кбит/сек
    ВидеоИдентификатор : 224 (0xE0)Формат : MPEG VideoВерсия формата : Version 2Профиль формата : Main@MainПараметр BVOP формата : ДаПараметр матрицы формата : ВыборочнаяПараметр GOP формата : VariableПродолжительность : 1 ч. 23 м.Вид битрейта : ПеременныйБитрейт : 1884 Кбит/секШирина : 720 пикселейВысота : 576 пикселейСоотношение сторон : 16:9Частота кадров : 25,000 кадров/секСтандарт вещания : PALЦветовое пространство : YUVСубдискретизация насыщенности : 4:2:0Битовая глубина : 8 битТип развёртки : ЧересстрочнаяПорядок развёртки : Верхнее поле первоеМетод сжатия : С потерямиБит/(Пиксели*Кадры) : 0.182Временной код первого кадра : 00:00:00:00Оригинал временного кода : Group of pictures headerРазмер потока : 1,10 Гбайт (89%)
    АудиоИдентификатор : 192 (0xC0)Формат : MPEG AudioВерсия формата : Version 1Профиль формата : Layer 2Продолжительность : 1 ч. 23 м.Вид битрейта : ПостоянныйБитрейт : 192 Кбит/секКаналы : 2 каналаЧастота : 48,0 КГцМетод сжатия : С потерямиРазмер потока : 114 Мбайт (9%)

    Скриншот c названием фильма

    Скриншоты


    Резервные скриншоты


    -1'108/1'090√
    Скачать .torrent

    Скачать торрент-файл бесплатно и на максимальной скорости!

    Как скачивать? · Что такое торрент? · Рейтинг и ограничения

    !ВНИМАНИЕ!
    Сайт не распространяет и не хранит электронные версии произведений, а занимается лишь лишь предоставлением доступа к создаваемому пользователями каталогу ссылок на торрент-файлы, которые содержат только списки хеш-сумм, убедительная просьба с жалобами обращаться напрямую к пользователю. Файлы для обмена на трекере предоставлены пользователями сайта, и администрация не несёт ответственности за их содержание. Просьба не заливать файлы, защищенные авторскими правами, а также файлы нелегального содержания!

    [Профиль] [ЛС]

    -746

    Создавать темы 12-Янв-2014 19:07 (спустя 24 дня)

           

    Топик был перенесен из форума Зарубежные Фильмы (Новинки) в форум Фильмы 2011-2013

    -sasha2006 

    _________________
    Как бы ты высоко не летал, не забывай, с кем ты ползал..
     
    Показать сообщения:    
    Ответить на тему

    Текущее время: Сегодня, в 00:07

    Часовой пояс: GMT + 2



    Вы не можете начинать темы
    Вы не можете отвечать на сообщения
    Вы не можете редактировать свои сообщения
    Вы не можете удалять свои сообщения
    Вы не можете голосовать в опросах
    Вы не можете прикреплять файлы к сообщениям
    Вы не можете скачивать файлы