BitTorrentTracker PerecTracker.org
BitTorrentTracker PerecTracker.org
    
Регистрация  ·  Вход
 
 · 
Забыли пароль?

  • Неестественный повод / Clean Break (Роберт Маленфант / Robert Malenfant) [2008, США, Драма, триллер, DVDRip] MVO (1 канал/СТС/ДТВ) + DVO (студия "Elrom")

    Ответить на тему
     
    Автор Сообщение

    Columb

    Создавать темы 18-Дек-2013 20:02

           

    [Цитировать]

    Неестественный повод / Clean Break
    Страна: США
    Жанр: Драма, триллер
    Год выпуска: 2008
    Продолжительность: 01:29:02
    Перевод 1: Профессиональный (многоголосый закадровый) 1 канал/СТС/ДТВ
    Перевод 2: Профессиональный (двухголосый закадровый) студия "Elrom"
    Cубтитры: нет
    Оригинальная аудиодорожка: нет
    Режиссер: Роберт Маленфант / Robert Malenfant
    В ролях: Тара Рейд, Колм Мини, Франческ Гарридо, Лорена Берналь, Роджер Дельмон, Сью Флэк, Энгус МакФадьен
    Описание: Ревнивый муж, продажный полицейский и храбрая женщина. Сложная история, полная сюрпризов, в которой Джулия оказывается вовлеченной в борьбу за свою жизнь. Когда ее муж начинает подозревать ее в измене он начинает сходить с ума и допускает, чтобы ее убили. Но Джулии удается симулировать свое убийство и через некоторое время она появляется, но многие оказываются заинтересованы в том, чтобы она была мертва...
    Качество видео: DVDRip
    Формат видео: AVI
    Видео: MPEG4, XviD, 704x400 (16/9), 25.000 fps, 1 807 Kbps (0.257 bit/pixel)
    Аудио 1: AC-3, 48.0 KHz, 2 ch, 224 Kbps, CBR - 1 канал
    Аудио 2: MP3, 48.0 KHz, 2 ch, 112 Kbps, CBR - Elrom

    MediaInfo

    Общее
    Полное имя : K:\Неестественный повод.avi
    Формат : AVI
    Формат/Информация : Audio Video Interleave
    Размер файла : 1,34 Гбайт
    Продолжительность : 1 ч. 29 м.
    Общий поток : 2158 Кбит/сек
    Название фильма : Неестественный повод / Clean Break (2008)
    Программа кодирования : VirtualDubMod 1.5.10.2 (build 2540/release)
    Библиотека кодирования : VirtualDubMod build 2540/release
    Видео
    Идентификатор : 0
    Формат : MPEG-4 Visual
    Профиль формата : Simple@L0
    Параметр BVOP формата : Нет
    Параметр QPel формата : Нет
    Параметр GMC формата : Без точки перехода
    Параметр матрицы формата : Default (H.263)
    Идентификатор кодека : XVID
    Идентификатор кодека/Подсказка : XviD
    Продолжительность : 1 ч. 29 м.
    Битрейт : 1807 Кбит/сек
    Ширина : 704 пикселя
    Высота : 400 пикселей
    Соотношение сторон : 16:9
    Частота кадров : 25,000 кадров/сек
    Цветовое пространство : YUV
    Субдискретизация насыщенности : 4:2:0
    Битовая глубина : 8 бит
    Тип развёртки : Прогрессивная
    Метод сжатия : С потерями
    Бит/(Пиксели*Кадры) : 0.257
    Размер потока : 1,12 Гбайт (84%)
    Библиотека кодирования : XviD 1.0.1 (UTC 2004-06-05)
    Аудио #1
    Идентификатор : 1
    Формат : AC-3
    Формат/Информация : Audio Coding 3
    Расширение режима : CM (complete main)
    Параметр Endianness формата : Big
    Идентификатор кодека : 2000
    Продолжительность : 1 ч. 28 м.
    Вид битрейта : Постоянный
    Битрейт : 224 Кбит/сек
    Каналы : 2 канала
    Расположение каналов : Front: L R
    Частота : 48,0 КГц
    Битовая глубина : 16 бит
    Метод сжатия : С потерями
    Размер потока : 143 Мбайт (10%)
    Выравнивание : Соединение по промежуткам
    Продолжительность промежутка : 40 мс. (1,00 видеокадр)
    Время предзагрузки промежутка : 512 мс.
    Заголовок : Профессиональный (многоголосый закадровый) 1 канал/СТС/ДТВ
    Аудио #2
    Идентификатор : 2
    Формат : MPEG Audio
    Версия формата : Version 1
    Профиль формата : Layer 3
    Режим : Joint stereo
    Расширение режима : MS Stereo
    Идентификатор кодека : 55
    Идентификатор кодека/Подсказка : MP3
    Продолжительность : 1 ч. 29 м.
    Вид битрейта : Постоянный
    Битрейт : 112 Кбит/сек
    Каналы : 2 канала
    Частота : 48,0 КГц
    Метод сжатия : С потерями
    Задержка видео : 984 мс.
    Размер потока : 71,3 Мбайт (5%)
    Выравнивание : Разделение по промежуткам
    Продолжительность промежутка : 40 мс. (1,00 видеокадр)
    Время предзагрузки промежутка : 504 мс.
    Заголовок : Профессиональный (двухголосый, закадровый) Elrom

    Скриншоты


    Скачать .torrent

    Скачать торрент-файл бесплатно и на максимальной скорости!

    Как скачивать? · Что такое торрент? · Рейтинг и ограничения

    !ВНИМАНИЕ!
    Сайт не распространяет и не хранит электронные версии произведений, а занимается лишь лишь предоставлением доступа к создаваемому пользователями каталогу ссылок на торрент-файлы, которые содержат только списки хеш-сумм, убедительная просьба с жалобами обращаться напрямую к пользователю. Файлы для обмена на трекере предоставлены пользователями сайта, и администрация не несёт ответственности за их содержание. Просьба не заливать файлы, защищенные авторскими правами, а также файлы нелегального содержания!

    [Профиль] [ЛС]
    Показать сообщения:    
    Ответить на тему

    Текущее время: Сегодня, в 02:09

    Часовой пояс: GMT + 2



    Вы не можете начинать темы
    Вы не можете отвечать на сообщения
    Вы не можете редактировать свои сообщения
    Вы не можете удалять свои сообщения
    Вы не можете голосовать в опросах
    Вы не можете прикреплять файлы к сообщениям
    Вы не можете скачивать файлы