BitTorrentTracker PerecTracker.org
BitTorrentTracker PerecTracker.org
    
Регистрация  ·  Вход
 
 · 
Забыли пароль?

  • Наш человек в Марракеше / Our Man in Marrakesh (Дон Шарп / Don Sharp) [1966, Великобритания, Комедия, HDTVRip] MVO (5-й канал)

    Ответить на тему
     
    Автор Сообщение

    Columb

    Создавать темы 18-Дек-2013 06:58

           

    [Цитировать]

    Наш человек в Марракеше / Our Man in Marrakesh
    Страна: Великобритания
    Жанр: Комедия
    Год выпуска: 1966
    Продолжительность: 01:29:50
    Перевод: Профессиональный (многоголосый закадровый) 5-й канал
    Cубтитры: нет
    Режиссер: Дон Шарп / Don Sharp
    В ролях: Тони Рэндалл, Сента Бергер, Терри-Томас, Херберт Лом, Уилфрид Хайд-Уайт, Грегуар Аслан, Джон Ле, Клаус Кински, Маргарет Ли, Джон Ле Мезюрье, Клаус Кински, Эмиль Стеммлер.
    Описание: # 1. Один из шести пассажиров, летящих из Касабланки в Марракеш, везет с собой два миллиона долларов, чтобы купить голоса в Совете ООН.
    Остальным пяти попутчикам остается только ломать голову: у кого же из них заветный чемоданчик с деньгами.
    # 2. У одного из пассажиров самолета в кармане пальто лежит два миллиона долларов. Десять лучших карманников Америки хотят украсть деньги. Но они не знают этого богача в лицо… (Томилин О.)
    Доп. информация: За предоставленный рип благодарим Ledy_X
    "Спасибы" просьба ПИСАТЬ в теме, тем самым вы продлеваете жизнь раздаче.
    Качество видео: HDTVRip [Исходник 1080i]
    Формат видео: AVI
    Видео: 720x400 (1.80:1), 25 fps, XviD build 50 ~2128 kbps avg, 0.29 bit/pixel
    Аудио: 48 kHz, AC3 Dolby Digital, 2/0 (L,R) ch, ~192 kbps

    MediaInfo

    Наш человек в Марракеше - Our Man in Marrakesh [Rip by Ledy_X].avi
    Format : AVI
    Format/Info : Audio Video Interleave
    File size : 1.46 GiB
    Duration : 1h 29mn
    Overall bit rate : 2 327 Kbps
    Movie name : Наш человек в Марракеше - Our Man in Marrakesh [Rip by Ledy_X]
    Director : Rip by Ledy_X
    Writing application : Nandub v1.0rc2
    Copyright : Edich2
    Comment : RuTracker.org
    Video
    ID : 0
    Format : MPEG-4 Visual
    Format profile : Advanced Simple@L5
    Format settings, BVOP : 1
    Format settings, QPel : No
    Format settings, GMC : No warppoints
    Format settings, Matrix : Custom
    Codec ID : XVID
    Codec ID/Hint : XviD
    Duration : 1h 29mn
    Bit rate : 2 128 Kbps
    Width : 720 pixels
    Height : 400 pixels
    Display aspect ratio : 16:9
    Frame rate : 25.000 fps
    Color space : YUV
    Chroma subsampling : 4:2:0
    Bit depth : 8 bits
    Scan type : Progressive
    Compression mode : Lossy
    Bits/(Pixel*Frame) : 0.296
    Stream size : 1.34 GiB (91%)
    Writing library : XviD 1.2.1 (UTC 2008-12-04)
    Audio
    ID : 1
    Format : AC-3
    Format/Info : Audio Coding 3
    Mode extension : CM (complete main)
    Format settings, Endianness : Big
    Codec ID : 2000
    Duration : 1h 28mn
    Bit rate mode : Constant
    Bit rate : 192 Kbps
    Channel count : 2 channels
    Channel positions : Front: L R
    Sampling rate : 48.0 KHz
    Bit depth : 16 bits
    Compression mode : Lossy
    Delay relative to video : 16ms
    Stream size : 122 MiB (8%)
    Alignment : Split accross interleaves
    Interleave, duration : 41 ms (1.01 video frame)
    Interleave, preload duration : 500 ms

    Скриншоты


    Скачать .torrent

    Скачать торрент-файл бесплатно и на максимальной скорости!

    Как скачивать? · Что такое торрент? · Рейтинг и ограничения

    !ВНИМАНИЕ!
    Сайт не распространяет и не хранит электронные версии произведений, а занимается лишь лишь предоставлением доступа к создаваемому пользователями каталогу ссылок на торрент-файлы, которые содержат только списки хеш-сумм, убедительная просьба с жалобами обращаться напрямую к пользователю. Файлы для обмена на трекере предоставлены пользователями сайта, и администрация не несёт ответственности за их содержание. Просьба не заливать файлы, защищенные авторскими правами, а также файлы нелегального содержания!

    [Профиль] [ЛС]
    Показать сообщения:    
    Ответить на тему

    Текущее время: Сегодня, в 10:40

    Часовой пояс: GMT + 2



    Вы не можете начинать темы
    Вы не можете отвечать на сообщения
    Вы не можете редактировать свои сообщения
    Вы не можете удалять свои сообщения
    Вы не можете голосовать в опросах
    Вы не можете прикреплять файлы к сообщениям
    Вы не можете скачивать файлы