BitTorrentTracker PerecTracker.org
BitTorrentTracker PerecTracker.org
    
Регистрация  ·  Вход
 
 · 
Забыли пароль?

  • Форсаж / The Fast and the Furious (Роб Коэн / Rob Cohen) [2001, США, Германия, Боевик, Триллер, Криминал, BDRip-AVC] Dub + Original + Subs (Rus, Eng)

    Ответить на тему
     
    Автор Сообщение

    Columb

    Создавать темы 17-Дек-2013 17:29

           

    [Цитировать]

    Памяти Пола Уокера / Paul Walker-Форсаж / The Fast and the Furious«Жить только ради 1/4 мили...»-Страна: США , Германия
    Жанр: Боевик, Триллер, Криминал
    Год выпуска: 2001
    Продолжительность: 01:46:50-Перевод: Профессиональный (полное дублирование)
    Оригинальная аудиодорожка: Английский
    Cубтитры: Русские (полные, форсированные), Английские (полные) (*srt)-Режиссер: Роб Коэн / Rob Cohen-В ролях: Пол Уокер, Вин Дизель, Джордана Брюстер, Мишель Родригес, Рик Юн, Чэд Линдберг, Джонни Стронг, Мэтт Шульце, Тед Левайн, Том Бэрри и др.-Описание:Его зовут Брайан, и он — фанатик турбин и нитроускорителей. Его цель — быть принятым в автобанду легендарного Доминика Торетто, чемпиона опасных и незаконных уличных гонок. Но это лишь часть правды… Брайан также полицейский, имеющий задание войти в доверие к Торетто, подозреваемому в причастности к дерзким грабежам трейлеров, совершенным прямо «с колес».
    Но чем больше доверяет нахальному новичку харизматичный Доминик, тем больше проникается герой идеалами «ангелов дорог». И тем меньше ему хочется выполнять свою миссию. И вот, наступает момент, когда Брайану придется выбирать между дружбой и долгом. И выбирать на скорости в 200 километров в час…-Автор: AngelOfTrue-Качество видео: BDRip-AVC | The Fast and the Furious (2001) Blu-ray CEE 1080p VC-1 DTS 5.1
    Формат видео: MKV-Видео: 1040x442 (2,35:1), 23,976 fps, x264 ~2150 kbps avg, 0.195 bit/pixel
    Аудио #1: AC3 Dolby Digital / 48 KHz / 384 kbps / 3/2 (L,C,R,l,r) + LFE ch| Dub
    Аудио #2: AC3 Dolby Digital / 48 KHz / 384 kbps / 3/2 (L,C,R,l,r) + LFE ch| Original (English)
    -

    x264 log

    avs [info]: 1040x442p 1:1 @ 2997/125 fps (cfr)
    x264 [warning]: --psnr used with psy on: results will be invalid!
    x264 [warning]: --tune psnr should be used if attempting to benchmark psnr!
    x264 [info]: using SAR=1/1
    x264 [info]: using cpu capabilities: MMX2 SSE2Fast SSSE3 SSE4.2 AVX AVX2 FMA3 LZCNT BMI1 BMI2
    x264 [info]: profile High, level 4.0
    x264 [info]: frame I:1177 Avg QP:17.73 size: 55681 PSNR Mean Y:45.71 U:49.15 V:49.79 Avg:46.63 Global:45.94
    x264 [info]: frame P:34643 Avg QP:20.83 size: 20295 PSNR Mean Y:44.15 U:48.42 V:48.96 Avg:45.18 Global:44.43
    x264 [info]: frame B:117889 Avg QP:22.28 size: 8095 PSNR Mean Y:43.04 U:48.08 V:48.79 Avg:44.19 Global:43.51
    x264 [info]: consecutive B-frames: 3.0% 3.8% 7.0% 24.7% 17.8% 25.7% 6.1% 4.4% 1.9% 1.3% 0.9% 0.8% 0.5% 0.7% 0.5% 0.4% 0.4%
    x264 [info]: mb I I16..4: 6.1% 76.0% 18.0%
    x264 [info]: mb P I16..4: 1.6% 11.6% 1.9% P16..4: 30.7% 36.9% 11.2% 1.4% 0.1% skip: 4.6%
    x264 [info]: mb B I16..4: 0.1% 1.1% 0.2% B16..8: 39.0% 21.7% 3.4% direct: 5.4% skip:29.0% L0:43.6% L1:46.6% BI: 9.8%
    x264 [info]: 8x8 transform intra:77.1% inter:64.2%
    x264 [info]: direct mvs spatial:99.0% temporal:1.0%
    x264 [info]: coded y,uvDC,uvAC intra: 85.3% 77.2% 42.4% inter: 29.0% 19.2% 3.8%
    x264 [info]: i16 v,h,dc,p: 24% 24% 6% 46%
    x264 [info]: i8 v,h,dc,ddl,ddr,vr,hd,vl,hu: 6% 8% 5% 11% 16% 14% 16% 11% 14%
    x264 [info]: i4 v,h,dc,ddl,ddr,vr,hd,vl,hu: 9% 13% 5% 8% 15% 14% 15% 10% 12%
    x264 [info]: i8c dc,h,v,p: 30% 33% 17% 20%
    x264 [info]: Weighted P-Frames: Y:3.4% UV:1.8%
    x264 [info]: ref P L0: 48.5% 7.0% 16.2% 7.4% 5.3% 4.0% 3.1% 1.8% 1.5% 1.3% 1.0% 0.9% 0.8% 0.7% 0.5% 0.1%
    x264 [info]: ref B L0: 71.0% 12.7% 6.0% 2.9% 2.1% 1.5% 1.2% 0.7% 0.6% 0.4% 0.4% 0.3% 0.2% 0.1%
    x264 [info]: ref B L1: 91.7% 8.3%
    x264 [info]: SSIM Mean Y:0.9717050 (15.483db)
    x264 [info]: PSNR Mean Y:43.311 U:48.167 V:48.837 Avg:44.431 Global:43.720 kb/s:2149.95
    -

    MediaInfo

    Формат : Matroska
    Версия формата : Version 4 / Version 2
    Размер файла : 2,18 Гбайт
    Продолжительность : 1 ч. 46 м.
    Общий поток : 2918 Кбит/сек
    Дата кодирования : UTC 2013-12-17 12:20:58
    Программа кодирования : mkvmerge v6.1.0 ('Old Devil') built on Mar 4 2013 09:10:42
    Библиотека кодирования : libebml v1.3.0 + libmatroska v1.4.0
    Видео
    Идентификатор : 1
    Формат : AVC
    Формат/Информация : Advanced Video Codec
    Профиль формата : High@L4.0
    Параметр CABAC формата : Да
    Параметр ReFrames формата : 15 кадров
    Идентификатор кодека : V_MPEG4/ISO/AVC
    Продолжительность : 1 ч. 46 м.
    Битрейт : 2150 Кбит/сек
    Ширина : 1040 пикселей
    Высота : 442 пикселя
    Соотношение сторон : 2,35:1
    Режим частоты кадров : Постоянный
    Частота кадров : 23,976 кадра/сек
    Цветовое пространство : YUV
    Субдискретизация насыщенности : 4:2:0
    Битовая глубина : 8 бит
    Тип развёртки : Прогрессивная
    Бит/(Пиксели*Кадры) : 0.195
    Размер потока : 1,56 Гбайт (72%)
    Заголовок : The.Fast.And.The.Furious.2001.DUAL.BDRip-AVC.AC3.-AngelOfTrue
    Библиотека кодирования : x264 core 130 r2273 b3065e6
    Настройки программы : cabac=1 / ref=15 / deblock=1:-3:-2 / analyse=0x3:0x133 / me=umh / subme=11 / psy=1 / psy_rd=1.00:0.00 / mixed_ref=1 / me_range=32 / chroma_me=1 / trellis=2 / 8x8dct=1 / cqm=0 / deadzone=21,11 / fast_pskip=0 / chroma_qp_offset=-2 / threads=6 / lookahead_threads=1 / sliced_threads=0 / nr=0 / decimate=0 / interlaced=0 / bluray_compat=0 / constrained_intra=0 / bframes=16 / b_pyramid=2 / b_adapt=2 / b_bias=0 / direct=3 / weightb=1 / open_gop=0 / weightp=2 / keyint=240 / keyint_min=23 / scenecut=40 / intra_refresh=0 / rc_lookahead=60 / rc=2pass / mbtree=0 / bitrate=2150 / ratetol=1.0 / qcomp=0.60 / qpmin=0 / qpmax=69 / qpstep=4 / cplxblur=20.0 / qblur=0.5 / vbv_maxrate=20000 / vbv_bufsize=25000 / nal_hrd=none / ip_ratio=1.35 / pb_ratio=1.25 / aq=2:1.00
    Язык : Russian
    Default : Да
    Forced : Нет
    Основные цвета : BT.709
    Характеристики трансфера : BT.709
    Аудио #1
    Идентификатор : 2
    Формат : AC-3
    Формат/Информация : Audio Coding 3
    Расширение режима : CM (complete main)
    Параметр Endianness формата : Big
    Идентификатор кодека : A_AC3
    Продолжительность : 1 ч. 46 м.
    Вид битрейта : Постоянный
    Битрейт : 384 Кбит/сек
    Каналы : 6 каналов
    Расположение каналов : Front: L C R, Side: L R, LFE
    Частота : 48,0 КГц
    Битовая глубина : 16 бит
    Метод сжатия : С потерями
    Размер потока : 294 Мбайт (13%)
    Заголовок : Dub
    Язык : Russian
    Default : Да
    Forced : Нет
    Аудио #2
    Идентификатор : 3
    Формат : AC-3
    Формат/Информация : Audio Coding 3
    Расширение режима : CM (complete main)
    Параметр Endianness формата : Big
    Идентификатор кодека : A_AC3
    Продолжительность : 1 ч. 46 м.
    Вид битрейта : Постоянный
    Битрейт : 384 Кбит/сек
    Каналы : 6 каналов
    Расположение каналов : Front: L C R, Side: L R, LFE
    Частота : 48,0 КГц
    Битовая глубина : 16 бит
    Метод сжатия : С потерями
    Размер потока : 294 Мбайт (13%)
    Заголовок : Original (English)
    Язык : English
    Default : Нет
    Forced : Нет
    Текст #1
    Идентификатор : 4
    Формат : UTF-8
    Идентификатор кодека : S_TEXT/UTF8
    Идентификатор кодека/Информация : UTF-8 Plain Text
    Заголовок : Russian (for)
    Язык : Russian
    Default : Да
    Forced : Да
    Текст #2
    Идентификатор : 5
    Формат : UTF-8
    Идентификатор кодека : S_TEXT/UTF8
    Идентификатор кодека/Информация : UTF-8 Plain Text
    Заголовок : Russian (full)
    Язык : Russian
    Default : Нет
    Forced : Нет
    Текст #3
    Идентификатор : 6
    Формат : UTF-8
    Идентификатор кодека : S_TEXT/UTF8
    Идентификатор кодека/Информация : UTF-8 Plain Text
    Заголовок : English (full)
    Язык : English
    Default : Нет
    Forced : Нет
    -

    Скриншоты



    -Дополнительная информация: -Приятного вам просмотра!
    Скачать .torrent

    Скачать торрент-файл бесплатно и на максимальной скорости!

    Как скачивать? · Что такое торрент? · Рейтинг и ограничения

    !ВНИМАНИЕ!
    Сайт не распространяет и не хранит электронные версии произведений, а занимается лишь лишь предоставлением доступа к создаваемому пользователями каталогу ссылок на торрент-файлы, которые содержат только списки хеш-сумм, убедительная просьба с жалобами обращаться напрямую к пользователю. Файлы для обмена на трекере предоставлены пользователями сайта, и администрация не несёт ответственности за их содержание. Просьба не заливать файлы, защищенные авторскими правами, а также файлы нелегального содержания!

    [Профиль] [ЛС]
    Показать сообщения:    
    Ответить на тему

    Текущее время: Сегодня, в 16:24

    Часовой пояс: GMT + 2



    Вы не можете начинать темы
    Вы не можете отвечать на сообщения
    Вы не можете редактировать свои сообщения
    Вы не можете удалять свои сообщения
    Вы не можете голосовать в опросах
    Вы не можете прикреплять файлы к сообщениям
    Вы не можете скачивать файлы