Register  ·  Log in
Forgot password?

  • Когда-то они были воинами / Once Were Warriors (Ли Тамахори / Lee Tamahori) [1994, Новая Зеландия, Драма, криминал, HDRip] VO (ZERZIA)

    Reply to topic
    Author Message


    Post 16-Dec-2013 20:22



    Когда-то они были воинами / Once Were Warriors«Her only chance for the future is to embrace the power of her past»-Страна: Новая Зеландия
    Жанр: Драма, криминал
    Год выпуска: 1994
    Продолжительность: 01:38:33-Перевод: Одноголосый закадровый [ZERZIA]
    Перевод и адаптация: dooctoor aka Dr.Filin
    Cубтитры: нет-Режиссер: Ли Тамахори / Lee Tamahori-В ролях: Рина Оуэн, Темуэра Моррисон, Мамаэнгароа Керр-Белл, Джулиан Араханга, Таунгароа Эмиль, Рэйчел Моррис мл., Джозеф Кайрау, Клифф Кёртис, Пит Смит, Джордж Хинар-Описание: Семья выходцев из племени маори пытается выжить в урбанистическом кошмаре, где царят насилие, преступность, самые разные человеческие пороки. Бет, дочь вождя аборигенов, уведённая с земли предков 18 лет назад своим мужем Джейком, по мере сил противостоит пьянству, беспутству и жестокости опустившегося супруга, желая запоздало уберечь сыновей и дочь от дурного влияния улицы…-Sample | IMDB | КиноПоиск-Тип релиза: HDRip [исх. BDRip 1080p]

    Формат видео: AVI-Видео: 720x400 (1.80:1), 25 fps, XviD build 50, 1670 kbps avg, 0.23 bit/pixel
    Аудио: 48 kHz, AC3 Dolby Digital, 3/2 (L,C,R,l,r) + LFE ch, 448.00 kbps avg [Russian_VO]-


    Complete name : D:\Мои раздачи\Once Were Warriors_HDRip_[1.46]_RG_All_Films.avi
    Format : AVI
    Format/Info : Audio Video Interleave
    File size : 1.47 GiB
    Duration : 1h 38mn
    Overall bit rate : 2 128 Kbps
    Writing application : VirtualDubMod SURROUND (build 2560/release)
    Writing library : VirtualDubMod build 2560/release
    ID : 0
    Format : MPEG-4 Visual
    Format profile : Advanced Simple@L5
    Format settings, BVOP : Yes
    Format settings, QPel : No
    Format settings, GMC : No warppoints
    Format settings, Matrix : Custom
    Codec ID : XVID
    Codec ID/Hint : XviD
    Duration : 1h 38mn
    Bit rate : 1 671 Kbps
    Width : 720 pixels
    Height : 400 pixels
    Display aspect ratio : 16:9
    Frame rate : 25.000 fps
    Color space : YUV
    Chroma subsampling : 4:2:0
    Bit depth : 8 bits
    Scan type : Progressive
    Compression mode : Lossy
    Bits/(Pixel*Frame) : 0.232
    Stream size : 1.15 GiB (79%)
    Writing library : XviD 1.2.1 (UTC 2008-12-04)
    ID : 1
    Format : AC-3
    Format/Info : Audio Coding 3
    Mode extension : CM (complete main)
    Codec ID : 2000
    Duration : 1h 38mn
    Bit rate mode : Constant
    Bit rate : 448 Kbps
    Channel(s) : 6 channels
    Channel positions : Front: L C R, Side: L R, LFE
    Sampling rate : 48.0 KHz
    Bit depth : 16 bits
    Compression mode : Lossy
    Stream size : 316 MiB (21%)
    Alignment : Split accross interleaves
    Interleave, duration : 40 ms (1.00 video frame)
    Interleave, preload duration : 500 ms


    Download .torrent

    Download free and at maximum speed!

    How to Download? · What is a torrent? · Ratings and Limitations

    The site does not extend and does not store electronic(digital) versions of products, and only gives access to a reference catalogue created by users on torrent-files which contain only lists of the hash-sums, the earnest entreaty, with complaints(abuse) to access directly to the user. Files for an exchange on tracker are given by users of a site, and the administration does not bear the responsibility for their maintenance. The request to not fill in the files protected by copyrights, and also files of the illegal maintenance!

    [Profile] [PM]
    Display posts from previous:    
    Reply to topic

    The time now is: Today 12:06

    All times are GMT + 3 Hours

    You cannot post new topics in this forum
    You cannot reply to topics in this forum
    You cannot edit your posts in this forum
    You cannot delete your posts in this forum
    You cannot vote in polls in this forum
    You cannot attach files in this forum
    You cannot download files in this forum