BitTorrentTracker PerecTracker.org
BitTorrentTracker PerecTracker.org
    
Регистрация  ·  Вход
 
 · 
Забыли пароль?

  • Когда-то они были воинами / Once Were Warriors (Ли Тамахори / Lee Tamahori) [1994, Новая Зеландия, Драма, криминал, HDRip] VO (ZERZIA)

    Ответить на тему
     
    Автор Сообщение

    Columb

    Создавать темы 16-Дек-2013 19:22

           

    [Цитировать]

    Когда-то они были воинами / Once Were Warriors«Her only chance for the future is to embrace the power of her past»-Страна: Новая Зеландия
    Жанр: Драма, криминал
    Год выпуска: 1994
    Продолжительность: 01:38:33-Перевод: Одноголосый закадровый [ZERZIA]
    Перевод и адаптация: dooctoor aka Dr.Filin
    Cубтитры: нет-Режиссер: Ли Тамахори / Lee Tamahori-В ролях: Рина Оуэн, Темуэра Моррисон, Мамаэнгароа Керр-Белл, Джулиан Араханга, Таунгароа Эмиль, Рэйчел Моррис мл., Джозеф Кайрау, Клифф Кёртис, Пит Смит, Джордж Хинар-Описание: Семья выходцев из племени маори пытается выжить в урбанистическом кошмаре, где царят насилие, преступность, самые разные человеческие пороки. Бет, дочь вождя аборигенов, уведённая с земли предков 18 лет назад своим мужем Джейком, по мере сил противостоит пьянству, беспутству и жестокости опустившегося супруга, желая запоздало уберечь сыновей и дочь от дурного влияния улицы…-Sample | IMDB | КиноПоиск-Тип релиза: HDRip [исх. BDRip 1080p]

    Формат видео: AVI-Видео: 720x400 (1.80:1), 25 fps, XviD build 50, 1670 kbps avg, 0.23 bit/pixel
    Аудио: 48 kHz, AC3 Dolby Digital, 3/2 (L,C,R,l,r) + LFE ch, 448.00 kbps avg [Russian_VO]-

    MediaInfo

    General
    Complete name : D:\Мои раздачи\Once Were Warriors_HDRip_[1.46]_RG_All_Films.avi
    Format : AVI
    Format/Info : Audio Video Interleave
    File size : 1.47 GiB
    Duration : 1h 38mn
    Overall bit rate : 2 128 Kbps
    Writing application : VirtualDubMod 1.6.0.0 SURROUND (build 2560/release)
    Writing library : VirtualDubMod build 2560/release
    Video
    ID : 0
    Format : MPEG-4 Visual
    Format profile : Advanced Simple@L5
    Format settings, BVOP : Yes
    Format settings, QPel : No
    Format settings, GMC : No warppoints
    Format settings, Matrix : Custom
    Codec ID : XVID
    Codec ID/Hint : XviD
    Duration : 1h 38mn
    Bit rate : 1 671 Kbps
    Width : 720 pixels
    Height : 400 pixels
    Display aspect ratio : 16:9
    Frame rate : 25.000 fps
    Color space : YUV
    Chroma subsampling : 4:2:0
    Bit depth : 8 bits
    Scan type : Progressive
    Compression mode : Lossy
    Bits/(Pixel*Frame) : 0.232
    Stream size : 1.15 GiB (79%)
    Writing library : XviD 1.2.1 (UTC 2008-12-04)
    Audio
    ID : 1
    Format : AC-3
    Format/Info : Audio Coding 3
    Mode extension : CM (complete main)
    Codec ID : 2000
    Duration : 1h 38mn
    Bit rate mode : Constant
    Bit rate : 448 Kbps
    Channel(s) : 6 channels
    Channel positions : Front: L C R, Side: L R, LFE
    Sampling rate : 48.0 KHz
    Bit depth : 16 bits
    Compression mode : Lossy
    Stream size : 316 MiB (21%)
    Alignment : Split accross interleaves
    Interleave, duration : 40 ms (1.00 video frame)
    Interleave, preload duration : 500 ms

    Скриншоты

    Скачать .torrent

    Скачать торрент-файл бесплатно и на максимальной скорости!

    Как скачивать? · Что такое торрент? · Рейтинг и ограничения

    !ВНИМАНИЕ!
    Сайт не распространяет и не хранит электронные версии произведений, а занимается лишь лишь предоставлением доступа к создаваемому пользователями каталогу ссылок на торрент-файлы, которые содержат только списки хеш-сумм, убедительная просьба с жалобами обращаться напрямую к пользователю. Файлы для обмена на трекере предоставлены пользователями сайта, и администрация не несёт ответственности за их содержание. Просьба не заливать файлы, защищенные авторскими правами, а также файлы нелегального содержания!

    [Профиль] [ЛС]
    Показать сообщения:    
    Ответить на тему

    Текущее время: Сегодня, в 20:46

    Часовой пояс: GMT + 2



    Вы не можете начинать темы
    Вы не можете отвечать на сообщения
    Вы не можете редактировать свои сообщения
    Вы не можете удалять свои сообщения
    Вы не можете голосовать в опросах
    Вы не можете прикреплять файлы к сообщениям
    Вы не можете скачивать файлы