BitTorrentTracker PerecTracker.org
BitTorrentTracker PerecTracker.org
    
Регистрация  ·  Вход
 
 · 
Забыли пароль?

  • Мистер Судьба / Mr. Destiny (Джеймс Орр / James Orr) [1990, США, комедия, WEB-DLRip-AVC] MVO + AVO (Михалёв) + Original Eng + Sub (Rus,eng)

    Ответить на тему
     
    Автор Сообщение

    Columb

    Создавать темы 16-Дек-2013 19:21

           

    [Цитировать]

    Мистер Судьба / Mr. Destiny
    Страна: США
    Жанр: комедия
    Год выпуска: 1990
    Продолжительность: 01:50:28
    Перевод 1: Профессиональный (многоголосый закадровый)
    Перевод 2: Авторский (одноголосый закадровый) Михалёв
    Cубтитры: русские, английские
    Оригинальная аудиодорожка: английский
    Режиссер: Джеймс Орр / James Orr
    В ролях: Джеймс Белуши, Линда Хэмилтон, Майкл Кейн, Джон Ловиц, Рене Руссо, Кортни Кокс, Харт Бокнер, Билл МакКачон, Джей О. Сэндерс, Мори Чайкин
    Описание: Представьте, что в один прекрасный день сбываются все ваши мечты. Именно это и случилось со скромным служащим Лэрри, когда он столкнулся с таинственным незнакомцем. В одно мгновение тоскливая жизнь Лэрри превратилась в сказку - огромный особняк, прекрасная жена, роскошные машины! Но довольно скоро сказочная жизнь набила оскомину, а вернуться обратно, в привычный мир, совсем не просто.
    Доп. информация: Исходник WEB-DL 720
    Сравнение с исходником
    Качество видео: WEB-DLRip-AVC
    Формат видео: MKV
    Видео: 960x516; (1.85:1); 23.976 fps, ~1858 kbps
    Аудио 1: Russian: 48 kHz, AC3, 2/0 (L,R) ch, ~192 kbps avg |Многоголосый закадровый, СТС/ТВЦ|
    Аудио 2: Russian: 48 kHz, AC3, 3/2 (L,C,R,l,r) + LFE ch, ~384 kbps avg |Одноголосый закадровый, Михалев|
    Аудио 3: English: 48 kHz, AC3, 3/2 (L,C,R,l,r) + LFE ch, ~384 kbps avg |iTunes|
    Формат субтитров: softsub (SRT)

    Медиаинфо

    -

    Лог

    raw [info]: 960x516p 1:1 @ 24000/1001 fps (cfr)
    x264 [info]: using SAR=1/1
    x264 [info]: using cpu capabilities: MMX2 SSE2Fast SSSE3 SSE4.2 AVX
    x264 [info]: profile High, level 4.1
    x264 [info]: frame I:1270 Avg QP:17.17 size: 61745
    x264 [info]: frame P:39006 Avg QP:19.92 size: 20149
    x264 [info]: frame B:118627 Avg QP:21.64 size: 5694
    x264 [info]: consecutive B-frames: 1.5% 3.0% 4.1% 65.3% 12.1% 12.0% 1.3% 0.8%
    x264 [info]: mb I I16..4: 2.6% 82.7% 14.8%
    x264 [info]: mb P I16..4: 0.5% 6.9% 1.1% P16..4: 36.4% 41.1% 12.0% 0.0% 0.0% skip: 2.0%
    x264 [info]: mb B I16..4: 0.1% 0.6% 0.1% B16..8: 35.7% 18.6% 2.6% direct: 5.3% skip:37.1% L0:38.7% L1:48.3% BI:13.0%
    x264 [info]: 8x8 transform intra:80.5% inter:56.7%
    x264 [info]: direct mvs spatial:99.4% temporal:0.6%
    x264 [info]: coded y,uvDC,uvAC intra: 86.6% 63.1% 28.0% inter: 25.5% 10.5% 1.7%
    x264 [info]: i16 v,h,dc,p: 31% 20% 8% 42%
    x264 [info]: i8 v,h,dc,ddl,ddr,vr,hd,vl,hu: 11% 7% 9% 10% 13% 13% 12% 12% 13%
    x264 [info]: i4 v,h,dc,ddl,ddr,vr,hd,vl,hu: 29% 7% 7% 7% 10% 11% 10% 9% 10%
    x264 [info]: i8c dc,h,v,p: 30% 35% 21% 14%
    x264 [info]: Weighted P-Frames: Y:5.7% UV:1.5%
    x264 [info]: ref P L0: 47.0% 10.5% 17.1% 5.1% 4.5% 3.1% 3.0% 1.5% 1.6% 1.2% 1.3% 1.0% 1.1% 0.9% 1.0% 0.1%
    x264 [info]: ref B L0: 82.2% 8.9% 3.0% 1.4% 1.0% 0.8% 0.7% 0.4% 0.4% 0.3% 0.3% 0.3% 0.2% 0.1%
    x264 [info]: ref B L1: 95.7% 4.3%
    x264 [info]: kb/s:1858.68
    -Общее
    Уникальный идентификатор : 211942387244973894621682648734139284021 (0x9F729E774EF08175AF312B897611FA35)
    Полное имя : D:\3GP\Раздачи\Mr.Destiny_1990-WEB-DLRip-AVC.mkv
    Формат : Matroska
    Версия формата : Version 2
    Размер файла : 2,18 Гбайт
    Продолжительность : 1 ч. 50 м.
    Общий поток : 2821 Кбит/сек
    Дата кодирования : UTC 2013-12-16 06:59:35
    Программа кодирования : mkvmerge v5.1.0 ('And so it goes') built on Nov 28 2011 23:58:28
    Библиотека кодирования : libebml v1.2.3 + libmatroska v1.3.0
    Видео
    Идентификатор : 1
    Формат : AVC
    Формат/Информация : Advanced Video Codec
    Профиль формата : High@L4.1
    Параметр CABAC формата : Да
    Параметр ReFrames формата : 15 кадров
    Идентификатор кодека : V_MPEG4/ISO/AVC
    Продолжительность : 1 ч. 50 м.
    Битрейт : 1859 Кбит/сек
    Ширина : 960 пикселей
    Высота : 516 пикселей
    Соотношение сторон : 1,85:1
    Режим частоты кадров : Постоянный
    Частота кадров : 23,976 кадра/сек
    Цветовое пространство : YUV
    Субдискретизация насыщенности : 4:2:0
    Битовая глубина : 8 бит
    Тип развёртки : Прогрессивная
    Бит/(Пиксели*Кадры) : 0.157
    Размер потока : 1,39 Гбайт (64%)
    Библиотека кодирования : x264 core 133 r2334 a3ac64b
    Настройки программы : cabac=1 / ref=15 / deblock=1:-1:-1 / analyse=0x3:0x113 / me=umh / subme=11 / psy=1 / psy_rd=1.00:0.00 / mixed_ref=1 / me_range=24 / chroma_me=1 / trellis=2 / 8x8dct=1 / cqm=0 / deadzone=21,11 / fast_pskip=0 / chroma_qp_offset=-2 / threads=12 / lookahead_threads=2 / sliced_threads=0 / nr=0 / decimate=0 / interlaced=0 / bluray_compat=0 / constrained_intra=0 / bframes=7 / b_pyramid=2 / b_adapt=2 / b_bias=0 / direct=3 / weightb=1 / open_gop=0 / weightp=2 / keyint=250 / keyint_min=23 / scenecut=40 / intra_refresh=0 / rc=2pass / mbtree=0 / bitrate=1859 / ratetol=1.0 / qcomp=0.60 / qpmin=0 / qpmax=69 / qpstep=4 / cplxblur=20.0 / qblur=0.5 / ip_ratio=1.40 / pb_ratio=1.30 / aq=1:1.00
    Язык : English
    Default : Да
    Forced : Нет
    Основные цвета : BT.709
    Характеристики трансфера : BT.709
    Коэффициенты матрицы : BT.709
    Аудио #1
    Идентификатор : 2
    Формат : AC-3
    Формат/Информация : Audio Coding 3
    Расширение режима : CM (complete main)
    Параметр Endianness формата : Big
    Идентификатор кодека : A_AC3
    Продолжительность : 1 ч. 50 м.
    Вид битрейта : Постоянный
    Битрейт : 192 Кбит/сек
    Каналы : 2 канала
    Расположение каналов : Front: L R
    Частота : 48,0 КГц
    Битовая глубина : 16 бит
    Метод сжатия : С потерями
    Размер потока : 152 Мбайт (7%)
    Заголовок : MVO СТС/ТВЦ
    Язык : Russian
    Default : Да
    Forced : Нет
    Аудио #2
    Идентификатор : 3
    Формат : AC-3
    Формат/Информация : Audio Coding 3
    Расширение режима : CM (complete main)
    Параметр Endianness формата : Big
    Идентификатор кодека : A_AC3
    Продолжительность : 1 ч. 50 м.
    Вид битрейта : Постоянный
    Битрейт : 384 Кбит/сек
    Каналы : 6 каналов
    Расположение каналов : Front: L C R, Side: L R, LFE
    Частота : 48,0 КГц
    Битовая глубина : 16 бит
    Метод сжатия : С потерями
    Размер потока : 303 Мбайт (14%)
    Заголовок : Михалев
    Язык : Russian
    Default : Нет
    Forced : Нет
    Аудио #3
    Идентификатор : 4
    Формат : AC-3
    Формат/Информация : Audio Coding 3
    Расширение режима : CM (complete main)
    Параметр Endianness формата : Big
    Идентификатор кодека : A_AC3
    Продолжительность : 1 ч. 50 м.
    Вид битрейта : Постоянный
    Битрейт : 384 Кбит/сек
    Каналы : 6 каналов
    Расположение каналов : Front: L C R, Side: L R, LFE
    Частота : 48,0 КГц
    Битовая глубина : 16 бит
    Метод сжатия : С потерями
    Размер потока : 303 Мбайт (14%)
    Заголовок : iTunes
    Язык : English
    Default : Нет
    Forced : Нет
    Текст #1
    Идентификатор : 5
    Формат : UTF-8
    Идентификатор кодека : S_TEXT/UTF8
    Идентификатор кодека/Информация : UTF-8 Plain Text
    Язык : Russian
    Default : Нет
    Forced : Нет
    Текст #2
    Идентификатор : 6
    Формат : UTF-8
    Идентификатор кодека : S_TEXT/UTF8
    Идентификатор кодека/Информация : UTF-8 Plain Text
    Язык : English
    Default : Нет
    Forced : Нет
    Меню
    00:00:00.000 : en:Mr. Destiny
    00:13:17.000 : en:Lose Something, Burrows?
    00:21:03.000 : en:Spilt Milk
    00:29:52.000 : en:Welcome to Your New Life
    00:41:14.000 : en:Happy Birthday L.J.
    00:48:44.000 : en:Tee Time
    00:59:32.000 : en:..But L.J.
    01:09:51.000 : en:What Was The Song?
    01:22:52.000 : en:Larry, Who Is She?
    01:29:49.000 : en:Don't Sign, Mr. Hansen
    01:39:46.000 : en:Happy Birthday, Larry
    01:44:27.000 : en:End Credits

    Скриншоты

    Скачать .torrent

    Скачать торрент-файл бесплатно и на максимальной скорости!

    Как скачивать? · Что такое торрент? · Рейтинг и ограничения

    !ВНИМАНИЕ!
    Сайт не распространяет и не хранит электронные версии произведений, а занимается лишь лишь предоставлением доступа к создаваемому пользователями каталогу ссылок на торрент-файлы, которые содержат только списки хеш-сумм, убедительная просьба с жалобами обращаться напрямую к пользователю. Файлы для обмена на трекере предоставлены пользователями сайта, и администрация не несёт ответственности за их содержание. Просьба не заливать файлы, защищенные авторскими правами, а также файлы нелегального содержания!

    [Профиль] [ЛС]
    Показать сообщения:    
    Ответить на тему

    Текущее время: Сегодня, в 00:20

    Часовой пояс: GMT + 2



    Вы не можете начинать темы
    Вы не можете отвечать на сообщения
    Вы не можете редактировать свои сообщения
    Вы не можете удалять свои сообщения
    Вы не можете голосовать в опросах
    Вы не можете прикреплять файлы к сообщениям
    Вы не можете скачивать файлы