BitTorrentTracker PerecTracker.org
BitTorrentTracker PerecTracker.org
    
Регистрация  ·  Вход
 
 · 
Забыли пароль?

  • Королевство Кэмпбелла / Campbell's Kingdom (Ральф Томас / Ralph Thomas) [1957, Великобритания, Приключения, вестерн, драма, DVDRip] DVO

    Ответить на тему
     
    Автор Сообщение

    Columb

    Создавать темы 16-Дек-2013 19:14

           

    [Цитировать]

    Королевство Кэмпбелла / Campbell's Kingdom

    Страна: Великобритания
    Жанр: Приключения, вестерн, драма
    Год выпуска: 1957
    Продолжительность: 01:37:24

    Перевод: Профессиональный (двухголосый закадровый)
    Cубтитры: нет

    Режиссер: Ральф Томас / Ralph Thomas

    В ролях: Дирк Богард, Стенли Бейкер, Майкл Крэйг, Барбара Мюррей, Джеймс Робертсон Джастис, Эфин Сейлер, Роберт Браун, Джон Лори, Сид Джеймс, Мэри Мерролл, Джордж Мёрселл, Роланд Брэнд, Финлэй Карри, Питер Иллинг, Морис Кауфман, Гордон Тэннер, Майлз Маллесон, Ричард МакНамара и др.

    Описание: Брюс Кэмпбелл наследует территорию "Королевство Кэмпбелла" в канадских Скалистых горах после смерти деда. Доктора поставили ему диагноз "неизлечимая болезнь" и он решает отправиться в Скалистые горы, чтобы выполнить мечту деда — найти нефть и, очистить его имя от несправедливого обвинения. Его дед — владелец компании занимающейся разведкой нефти верил, что в этих горах есть нефть, но компания разорилась, а деда признали виновным в мошенничестве.
    Оуэн Морган является боссом компании, которая строит дамбу. Когда дамба будет закончена, вода затопит "Королевство", а вместе с ним и надежды на исполнение мечты.
    Задача Кембелла — это гонка на время, чтобы доказать, что на территории "Королевства" есть нефть, прежде чем дамба будет закончена.


    Качество видео: DVDRip
    Формат видео: AVI


    Видео: XviD 576x432 25 fps, ~933 kbps 0.150 bit/pixel
    Аудио: Mp3 48 kHz, 2 ch, 128 kbps

    MediaInfo

    General
    Complete name : E:\1957 Campbell's Kingdom 745 _Эталон67.avi
    Format : AVI
    Format/Info : Audio Video Interleave
    File size : 746 MiB
    Duration : 1h 37mn
    Overall bit rate : 1 070 Kbps
    Director : Эталон67 from rutracker.org
    Writing application : VirtualDubMod 1.5.10.2 (build 2540/release)
    Writing library : VirtualDubMod build 2540/release
    Video
    ID : 0
    Format : MPEG-4 Visual
    Format profile : Advanced Simple@L5
    Format settings, BVOP : Yes
    Format settings, QPel : No
    Format settings, GMC : No warppoints
    Format settings, Matrix : Default (H.263)
    Codec ID : XVID
    Codec ID/Hint : XviD
    Duration : 1h 37mn
    Bit rate : 933 Kbps
    Width : 576 pixels
    Height : 432 pixels
    Display aspect ratio : 4:3
    Frame rate : 25.000 fps
    Color space : YUV
    Chroma subsampling : 4:2:0
    Bit depth : 8 bits
    Scan type : Progressive
    Compression mode : Lossy
    Bits/(Pixel*Frame) : 0.150
    Stream size : 650 MiB (87%)
    Writing library : XviD 1.2.1 (UTC 2008-12-04)
    Audio
    ID : 1
    Format : MPEG Audio
    Format version : Version 1
    Format profile : Layer 3
    Mode : Dual mono
    Codec ID : 55
    Codec ID/Hint : MP3
    Duration : 1h 37mn
    Bit rate mode : Constant
    Bit rate : 128 Kbps
    Channel count : 2 channels
    Sampling rate : 48.0 KHz
    Compression mode : Lossy
    Stream size : 89.0 MiB (12%)
    Alignment : Aligned on interleaves
    Interleave, duration : 40 ms (1.00 video frame)
    Interleave, preload duration : 504 ms
    Writing library : LAME3.98
    Encoding settings : -m d -V 4 -q 3 -lowpass 17 -b 128

    Скриншот c названием фильма

    Скриншоты

    Скачать .torrent

    Скачать торрент-файл бесплатно и на максимальной скорости!

    Как скачивать? · Что такое торрент? · Рейтинг и ограничения

    !ВНИМАНИЕ!
    Сайт не распространяет и не хранит электронные версии произведений, а занимается лишь лишь предоставлением доступа к создаваемому пользователями каталогу ссылок на торрент-файлы, которые содержат только списки хеш-сумм, убедительная просьба с жалобами обращаться напрямую к пользователю. Файлы для обмена на трекере предоставлены пользователями сайта, и администрация не несёт ответственности за их содержание. Просьба не заливать файлы, защищенные авторскими правами, а также файлы нелегального содержания!

    [Профиль] [ЛС]
    Показать сообщения:    
    Ответить на тему

    Текущее время: Сегодня, в 22:25

    Часовой пояс: GMT + 2



    Вы не можете начинать темы
    Вы не можете отвечать на сообщения
    Вы не можете редактировать свои сообщения
    Вы не можете удалять свои сообщения
    Вы не можете голосовать в опросах
    Вы не можете прикреплять файлы к сообщениям
    Вы не можете скачивать файлы