BitTorrentTracker PerecTracker.org
BitTorrentTracker PerecTracker.org
    
Регистрация  ·  Вход
 
 · 
Забыли пароль?

  • Мэри Капитан Пиратов / Приключения Мэри Рид / Le avventure di Mary Read / Mary la rousse, femme pirate / Queen of the Seas (Умберто Ленци / Umberto Lenzi) [1961, Франция, Италия, приключения, DVDRip] VO (Ирэн) + Original Ita + Sub Eng

    Ответить на тему
     
    Автор Сообщение

    Columb

    Создавать темы 16-Дек-2013 19:13

           

    [Цитировать]

    Мэри Капитан Пиратов / Le avventure di Mary Read / Piratenkapitän Mary
    Страна: Франция, Италия
    Жанр: мелодрама, приключения
    Год выпуска: 1961
    Продолжительность: 01:24:28
    Перевод: Одноголосый закадровый Ирэн (с немецкого дубляжа)
    Cубтитры: английские
    (- русские субтитры здесь)
    Оригинальная аудиодорожка: итальянский
    Режиссер: Умберто Ленци / Umberto Lenzi
    В ролях: Лиза Гастони / Lisa Gastoni... Mary Read
    Джером Куртлэнд /Jerome Courtland... Peter Goodwin
    Уолтер Барнс / Walter Barnes... Captain Poof
    Агостино Сальвьетти / Agostino Salvietti... Pirate Mangiatrippa
    Джермано Лонго / Germano Longo... Pirate Ivan
    Джанни Соларо / Gianni Solaro... Florida Governor
    Джизелла Арден / Gisella Arden... French dancer
    Дина Де Сантис / Dina De Santis... Lady flirting with Peter
    Туллио Альтамура / Tullio Altamura... Don Pedro Alvarez
    Игнацио Бальзамо / Ignazio Balsamo... Captain of the Guard
    Описание: Светловолосая красотка Мэри Рид — авантюристка и воровка, захвачена королевской стражей и попадает в темницу. Там она знакомится с Питером Гудвином, дворянином, которого она принимает за грабителя, и проникается к нему симпатией. Оставив девушку в тюрьме, Питер покидает ее. Спустя время, Мэри поднимается в своей преступной жизни и становится хорошим пиратом при капитане Пуфе. И когда капитан умирает, единственный человек на борту, которого уважает каждый среди пиратов… это Мэри. Она представляет угрозу губернатору Флориды, который приглашает дворянина возглавить военно-морские силы короля в кампании против пиратов — Питера Гудвина… Предстоящая схватка принимает все более личный характер…
    Сэмпл: http://multi-up.com/932878
    Качество видео: DVDRip
    Формат видео: AVI
    Видео: 720x304 (2.37:1), 25 fps, DivX Codec 5.x or 6.x ~2109 kbps avg, 0.39 bit/pixel - rip скачал из cinemageddon - спасибо aquasantajoe
    Аудио 1: 48 kHz, AC3 Dolby Digital, 2/0 (L,R) ch, ~192 kbps - перевод Ирэн оцифрован и синхронизирован мной с коллекционной VHS
    Аудио 2: 48 kHz, AC3 Dolby Digital, 2/0 (L,R) ch, ~192 kbps - italian
    Аудио 3: 48 kHz, AC3 Dolby Digital, 2/0 (L,R) ch, ~128 kbps - french (отдельно)

    MediaInfo

    Формат : AVI
    Формат/Информация : Audio Video Interleave
    Размер файла : 1,48 Гбайт
    Продолжительность : 1 ч. 24 м.
    Общий поток : 2509 Кбит/сек
    Название фильма : Le Avventure di Mary Read (1961)
    Программа кодирования : VirtualDubMod 1.5.10.3 | www.virtualdub-fr.org || (build 2550/release)
    Библиотека кодирования : VirtualDubMod build 2550/release
    Правообладатель : sasikainen
    Видео
    Идентификатор : 0
    Формат : MPEG-4 Visual
    Профиль формата : Simple@L1
    Параметр BVOP формата : Нет
    Параметр QPel формата : Нет
    Параметр GMC формата : Без точки перехода
    Параметр матрицы формата : Default (H.263)
    Идентификатор кодека : DX50
    Идентификатор кодека/Подсказка : DivX 5
    Продолжительность : 1 ч. 24 м.
    Битрейт : 2111 Кбит/сек
    Ширина : 720 пикселей
    Высота : 304 пикселя
    Соотношение сторон : 2,35:1
    Частота кадров : 25,000 кадров/сек
    Цветовое пространство : YUV
    Субдискретизация насыщенности : 4:2:0
    Битовая глубина : 8 бит
    Тип развёртки : Прогрессивная
    Метод сжатия : С потерями
    Бит/(Пиксели*Кадры) : 0.386
    Размер потока : 1,25 Гбайт (84%)
    Библиотека кодирования : Lavc52.42.0
    Аудио #1
    Идентификатор : 1
    Формат : AC-3
    Формат/Информация : Audio Coding 3
    Расширение режима : CM (complete main)
    Параметр Endianness формата : Big
    Идентификатор кодека : 2000
    Продолжительность : 1 ч. 24 м.
    Вид битрейта : Постоянный
    Битрейт : 192 Кбит/сек
    Каналы : 2 канала
    Расположение каналов : Front: L R
    Частота : 48,0 КГц
    Битовая глубина : 16 бит
    Метод сжатия : С потерями
    Размер потока : 116 Мбайт (8%)
    Выравнивание : Разделение по промежуткам
    Продолжительность промежутка : 40 мс. (1,00 видеокадр)
    Время предзагрузки промежутка : 500 мс.
    Заголовок : russian
    Аудио #2
    Идентификатор : 2
    Формат : AC-3
    Формат/Информация : Audio Coding 3
    Расширение режима : CM (complete main)
    Параметр Endianness формата : Big
    Идентификатор кодека : 2000
    Продолжительность : 1 ч. 24 м.
    Вид битрейта : Постоянный
    Битрейт : 192 Кбит/сек
    Каналы : 2 канала
    Расположение каналов : Front: L R
    Частота : 48,0 КГц
    Битовая глубина : 16 бит
    Метод сжатия : С потерями
    Размер потока : 116 Мбайт (8%)
    Выравнивание : Разделение по промежуткам
    Продолжительность промежутка : 40 мс. (1,00 видеокадр)
    Время предзагрузки промежутка : 500 мс.
    Заголовок : italian

    Скриншоты

    Скачать .torrent

    Скачать торрент-файл бесплатно и на максимальной скорости!

    Как скачивать? · Что такое торрент? · Рейтинг и ограничения

    !ВНИМАНИЕ!
    Сайт не распространяет и не хранит электронные версии произведений, а занимается лишь лишь предоставлением доступа к создаваемому пользователями каталогу ссылок на торрент-файлы, которые содержат только списки хеш-сумм, убедительная просьба с жалобами обращаться напрямую к пользователю. Файлы для обмена на трекере предоставлены пользователями сайта, и администрация не несёт ответственности за их содержание. Просьба не заливать файлы, защищенные авторскими правами, а также файлы нелегального содержания!

    [Профиль] [ЛС]
    Показать сообщения:    
    Ответить на тему

    Текущее время: Сегодня, в 08:33

    Часовой пояс: GMT + 2



    Вы не можете начинать темы
    Вы не можете отвечать на сообщения
    Вы не можете редактировать свои сообщения
    Вы не можете удалять свои сообщения
    Вы не можете голосовать в опросах
    Вы не можете прикреплять файлы к сообщениям
    Вы не можете скачивать файлы