BitTorrentTracker PerecTracker.org
BitTorrentTracker PerecTracker.org
    
Регистрация  ·  Вход
 
 · 
Забыли пароль?

  • Крепкий орешек 3: Возмездие / Die Hard: With a Vengeance (Джон МакТирнан / John McTiernan) [1990, США, боевик, триллер, криминал, BDRip] MVO (R5/Гемини)

    Ответить на тему
     
    Автор Сообщение

    Columb

    Создавать темы 16-Дек-2013 19:00

           

    [Цитировать]

    Крепкий орешек 3: Возмездие / Die Hard: With a Vengeance
    Страна: США
    Жанр: боевик, триллер, криминал
    Год выпуска: 1995
    Продолжительность: 02:08:31
    Перевод: Профессиональный (многоголосый закадровый)
    Cубтитры: нет
    Режиссер: Джон МакТирнан / John McTiernan
    В ролях: Брюс Уиллис, Джереми Айронс, Сэмюэл Л. Джексон, Грэм Грин, Коллин Кэмп, Ларри Бриггман, Энтони Пек, Николас Уаймэн, Сэм Филлипс
    Описание: На улицах Нью-Йорка офицер полиции Джон МакКлейн видел все, что только возможно. На этот раз для того, чтобы отомстить МакКлейну, террорист Саймон, виртуозно устраивающий взрывы, заставляет героя — полицейского играть в смертельную игру. Ставка — город Нью-Йорк.
    МакКлейн вынужден метаться по городу, следуя телефонным указаниям Саймона, готового разнести пол — Нью-Йорка за малейшее отклонение от его требований. И в то время, как вся полиция города занята поисками террористов, преступники похищают золотой запас Национального банка США.
    У МакКлейна бывали неудачные деньки за годы службы в полиции, но сегодня у него, похоже, будет исключительно скверный день…

    Доп. информация:
    Качество видео: BDRip | Daddy_BOSS/1080p BD-Remux
    Формат видео: AVI
    Видео: 720x304 (2.37:1), 23.976 fps, XviD build 73 ~1421 kbps avg, 0.27 bit/pixel
    Аудио: 48 kHz, AC3 Dolby Digital, 2/0 (L,R) ch, ~192 kbps

    MediaInfo

    Размер файла : 1,46 Гбайт
    Продолжительность : 2 ч. 8 м.
    Общий поток : 1622 Кбит/сек
    Режиссёр : Last Boy Scout
    Программа кодирования : VirtualDubMod 1.5.10.3 | www.virtualdub-fr.org || (build 2550/release)
    Правообладатель : rutracker.org 16.12.2013
    Примечание : BDRip MVO (R5/Гемини)
    Видео
    Идентификатор : 0
    Формат : MPEG-4 Visual
    Профиль формата : Advanced Simple@L5
    Параметр BVOP формата : 1
    Параметр QPel формата : Нет
    Параметр GMC формата : Без точки перехода
    Параметр матрицы формата : Выборочная
    Идентификатор кодека : XVID
    Идентификатор кодека/Подсказка : XviD
    Продолжительность : 2 ч. 8 м.
    Битрейт : 1421 Кбит/сек
    Ширина : 720 пикселей
    Высота : 304 пикселя
    Соотношение сторон : 2,35:1
    Частота кадров : 23,976 кадра/сек
    Цветовое пространство : YUV
    Субдискретизация насыщенности : 4:2:0
    Битовая глубина : 8 бит
    Тип развёртки : Прогрессивная
    Метод сжатия : С потерями
    Бит/(Пиксели*Кадры) : 0.271
    Размер потока : 1,28 Гбайт (88%)
    Библиотека кодирования : XviD 73
    Аудио
    Идентификатор : 1
    Формат : AC-3
    Формат/Информация : Audio Coding 3
    Расширение режима : CM (complete main)
    Параметр Endianness формата : Big
    Идентификатор кодека : 2000
    Продолжительность : 2 ч. 8 м.
    Вид битрейта : Постоянный
    Битрейт : 192 Кбит/сек
    Каналы : 2 канала
    Расположение каналов : Front: L R
    Частота : 48,0 КГц
    Битовая глубина : 16 бит
    Метод сжатия : С потерями
    Размер потока : 177 Мбайт (12%)
    Выравнивание : Разделение по промежуткам
    Продолжительность промежутка : 42 мс. (1,00 видеокадр)
    Время предзагрузки промежутка : 500 мс.

    Скриншоты

    Скачать .torrent

    Скачать торрент-файл бесплатно и на максимальной скорости!

    Как скачивать? · Что такое торрент? · Рейтинг и ограничения

    !ВНИМАНИЕ!
    Сайт не распространяет и не хранит электронные версии произведений, а занимается лишь лишь предоставлением доступа к создаваемому пользователями каталогу ссылок на торрент-файлы, которые содержат только списки хеш-сумм, убедительная просьба с жалобами обращаться напрямую к пользователю. Файлы для обмена на трекере предоставлены пользователями сайта, и администрация не несёт ответственности за их содержание. Просьба не заливать файлы, защищенные авторскими правами, а также файлы нелегального содержания!

    [Профиль] [ЛС]
    Показать сообщения:    
    Ответить на тему

    Текущее время: Сегодня, в 09:46

    Часовой пояс: GMT + 2



    Вы не можете начинать темы
    Вы не можете отвечать на сообщения
    Вы не можете редактировать свои сообщения
    Вы не можете удалять свои сообщения
    Вы не можете голосовать в опросах
    Вы не можете прикреплять файлы к сообщениям
    Вы не можете скачивать файлы