BitTorrentTracker PerecTracker.org
BitTorrentTracker PerecTracker.org
    
Регистрация  ·  Вход
 
 · 
Забыли пароль?

  • Жизнь в стиле кантри 2 / Подарок ангелов / Pure Country 2: The Gift (Кристофер Кэйн / Christopher Cain) [2010, США, мюзикл, драма, мелодрама, музыка, DVDRip] MVO (ТВ3) + Original Eng

    Ответить на тему
     
    Автор Сообщение

    Columb

    Создавать темы 16-Дек-2013 18:29

           

    [Цитировать]

    Жизнь в стиле кантри 2 / Подарок ангелов / Pure Country 2: The Gift
    Страна: США
    Жанр: мюзикл, драма, мелодрама, музыка
    Год выпуска: 2010
    Продолжительность: 01:51:49
    Перевод: Профессиональный (многоголосый закадровый) ТВ3
    Cубтитры: нет
    Оригинальная аудиодорожка: английский
    Режиссер: Кристофер Кэйн / Christopher Cain
    В ролях: Катрина Элам (Бобби Томас), Бронсон Пиншо (Джозеф), Чич Марин (Педро), Джеки Уэлч (тетя Элла), Трэвис Фиммел (Дейл Джордан)
    Описание: Три ангела наделяют героиню фильма, девушку по имени Бобби, волшебным даром - чудесным голосом. Теперь Бобби ждут успех, слава и богатство, нужно лишь соблюдать ряд нехитрых правил. Однако, оказавшись на вершине успеха, среди больших звезд, Бобби о правилах забывает...
    Качество видео: DVDRip
    Формат видео: AVI
    Видео: MPEG4, XviD, 592x320 (1.850), 23.976 fps, 1 354 Kbps (0.298 bit/pixel)
    Аудио: AC-3, 48.0 KHz, 2 ch, 192 Kbps, CBR - русский
    Аудио 2: AC-3, 48.0 KHz, 6 ch, 384 Kbps, CBR - английский

    MediaInfo

    Общее
    Полное имя : K:\МОИ РАЗДАЧИ\Подарок ангелов\1400\Подарок ангелов.avi
    Формат : AVI
    Формат/Информация : Audio Video Interleave
    Размер файла : 1,52 Гбайт
    Продолжительность : 1 ч. 51 м.
    Общий поток : 1944 Кбит/сек
    Название фильма : Жизнь в стиле кантри 2 / Подарок ангелов / Pure Country 2: The Gift (2010)
    Программа кодирования : VirtualDubMod 1.5.10.2 (build 2540/release)
    Библиотека кодирования : VirtualDubMod build 2540/release
    Видео
    Идентификатор : 0
    Формат : MPEG-4 Visual
    Профиль формата : Advanced Simple@L5
    Параметр BVOP формата : 2
    Параметр QPel формата : Нет
    Параметр GMC формата : Без точки перехода
    Параметр матрицы формата : Default (H.263)
    Идентификатор кодека : XVID
    Идентификатор кодека/Подсказка : XviD
    Продолжительность : 1 ч. 51 м.
    Битрейт : 1354 Кбит/сек
    Ширина : 592 пикселя
    Высота : 320 пикселей
    Соотношение сторон : 1,85:1
    Частота кадров : 23,976 кадра/сек
    Цветовое пространство : YUV
    Субдискретизация насыщенности : 4:2:0
    Битовая глубина : 8 бит
    Тип развёртки : Прогрессивная
    Метод сжатия : С потерями
    Бит/(Пиксели*Кадры) : 0.298
    Размер потока : 1,06 Гбайт (70%)
    Библиотека кодирования : XviD 1.1.2 (UTC 2006-11-01)
    Аудио #1
    Идентификатор : 1
    Формат : AC-3
    Формат/Информация : Audio Coding 3
    Расширение режима : CM (complete main)
    Параметр Endianness формата : Big
    Идентификатор кодека : 2000
    Продолжительность : 1 ч. 51 м.
    Вид битрейта : Постоянный
    Битрейт : 192 Кбит/сек
    Каналы : 2 канала
    Расположение каналов : Front: L R
    Частота : 48,0 КГц
    Битовая глубина : 16 бит
    Метод сжатия : С потерями
    Размер потока : 154 Мбайт (10%)
    Выравнивание : Разделение по промежуткам
    Продолжительность промежутка : 42 мс. (1,00 видеокадр)
    Время предзагрузки промежутка : 500 мс.
    Заголовок : Профессиональный (многоголосый закадровый) ТВ3
    Аудио #2
    Идентификатор : 2
    Формат : AC-3
    Формат/Информация : Audio Coding 3
    Расширение режима : CM (complete main)
    Параметр Endianness формата : Big
    Идентификатор кодека : 2000
    Продолжительность : 1 ч. 51 м.
    Вид битрейта : Постоянный
    Битрейт : 384 Кбит/сек
    Каналы : 6 каналов
    Расположение каналов : Front: L C R, Side: L R, LFE
    Частота : 48,0 КГц
    Битовая глубина : 16 бит
    Метод сжатия : С потерями
    Размер потока : 307 Мбайт (20%)
    Выравнивание : Разделение по промежуткам
    Продолжительность промежутка : 42 мс. (1,00 видеокадр)
    Время предзагрузки промежутка : 500 мс.
    Заголовок : Английский

    Скриншот c названием фильма

    Скриншоты


    Скачать .torrent

    Скачать торрент-файл бесплатно и на максимальной скорости!

    Как скачивать? · Что такое торрент? · Рейтинг и ограничения

    !ВНИМАНИЕ!
    Сайт не распространяет и не хранит электронные версии произведений, а занимается лишь лишь предоставлением доступа к создаваемому пользователями каталогу ссылок на торрент-файлы, которые содержат только списки хеш-сумм, убедительная просьба с жалобами обращаться напрямую к пользователю. Файлы для обмена на трекере предоставлены пользователями сайта, и администрация не несёт ответственности за их содержание. Просьба не заливать файлы, защищенные авторскими правами, а также файлы нелегального содержания!

    [Профиль] [ЛС]
    Показать сообщения:    
    Ответить на тему

    Текущее время: Сегодня, в 16:30

    Часовой пояс: GMT + 2



    Вы не можете начинать темы
    Вы не можете отвечать на сообщения
    Вы не можете редактировать свои сообщения
    Вы не можете удалять свои сообщения
    Вы не можете голосовать в опросах
    Вы не можете прикреплять файлы к сообщениям
    Вы не можете скачивать файлы