Register  ·  Log in
Forgot password?

  • Комплекс / The Complex / Kuroyuri danchi (Хидео Наката / Hideo Nakata) [2013, Япония, ужасы, HDRip] DVO

    Reply to topic
    Author Message


    Post 15-Dec-2013 21:43



    КомплексThe Complex / Kuroyuri danchi-Страна: Япония
    Жанр: ужасы
    Год выпуска: 2013
    Продолжительность: 01:46:20-Перевод: Любительский (двухголосый) [den904 и DeadSno]
    Субтитры: нет
    Режиссер: Хидео Наката / Hideo Nakata
    В ролях: Ацуко Маеда, Хироки Наримия, Масанобу Кацумура, Наоми Нисида, Kanau Tanaka-Описание: Асука переезжает в жилой комплекс Куроюри, не зная о таинственных смертях, которые произошли там 13 лет назад. Она начинает слышать странные звуки из квартиры напротив. Однажды старика, который живет по соседству, находят мертвым...-


    Доп. Информация

    Сценарий: Юня Като / Junya Kato, Рюта Мияке / Ry�ta Miyake
    Продюсер: Масаюки Акиэда / Masayuki Akieda, Чиаки Нодзи / Chiaki Noji, Такахиро Суэмацу / Takahiro Suematsu, Тадаси Танака / Tadashi Tanaka, Кадзухико Абиру / Kazuhiko Abiru
    Оператор: Дзюнъитиро Хаяси / Junichir� Hayashi
    Композитор: Кэндзи Кавай / Kenji Kawai
    Мировая премьера: 27 января 2013
    -Качество: HDRip
    Контейнер: AVI
    Видео: XviD, 720x304 (2.35:1), 1734 kbps, 23,976 fps, 0,331 bpp
    Аудио: AC3 / 2.0 / 48 kHz / 192 kbps / 16 bit-

    Media Info

    Complete name : G:\Kompleks.2013_HDRip.avi
    Format : AVI
    Format/Info : Audio Video Interleave
    File size : 1.44 GiB
    Duration : 1h 46mn
    Overall bit rate : 1 936 Kbps
    Movie name : Kuroyuri.danchi.2013.HDRip
    Director : rip by maygli
    Writing application : VirtualDubModRus (build 2542/release)
    ID : 0
    Format : MPEG-4 Visual
    Format profile : Advanced Simple@L5
    Format settings, BVOP : 1
    Format settings, QPel : No
    Format settings, GMC : No warppoints
    Format settings, Matrix : Custom
    Codec ID : XVID
    Codec ID/Hint : XviD
    Duration : 1h 46mn
    Bit rate : 1 734 Kbps
    Width : 720 pixels
    Height : 304 pixels
    Display aspect ratio : 2.35:1
    Frame rate : 23.976 fps
    Color space : YUV
    Chroma subsampling : 4:2:0
    Bit depth : 8 bits
    Scan type : Progressive
    Compression mode : Lossy
    Bits/(Pixel*Frame) : 0.331
    Stream size : 1.29 GiB (90%)
    Writing library : XviD 65
    ID : 1
    Format : AC-3
    Format/Info : Audio Coding 3
    Mode extension : CM (complete main)
    Codec ID : 2000
    Duration : 1h 46mn
    Bit rate mode : Constant
    Bit rate : 192 Kbps
    Channel(s) : 2 channels
    Channel positions : Front: L R
    Sampling rate : 48.0 KHz
    Bit depth : 16 bits
    Compression mode : Lossy
    Stream size : 146 MiB (10%)
    Alignment : Split accross interleaves
    Interleave, duration : 42 ms (1.00 video frame)
    Interleave, preload duration : 500 ms
    Title : Любительский (двухголосый закадровый) den904 & DeadSno / Перевод: Akira9

    Скриншот с названием фильма


    Download .torrent

    Download free and at maximum speed!

    How to Download? · What is a torrent? · Ratings and Limitations

    The site does not extend and does not store electronic(digital) versions of products, and only gives access to a reference catalogue created by users on torrent-files which contain only lists of the hash-sums, the earnest entreaty, with complaints(abuse) to access directly to the user. Files for an exchange on tracker are given by users of a site, and the administration does not bear the responsibility for their maintenance. The request to not fill in the files protected by copyrights, and also files of the illegal maintenance!

    [Profile] [PM]
    Display posts from previous:    
    Reply to topic

    The time now is: Today 04:16

    All times are GMT + 3 Hours

    You cannot post new topics in this forum
    You cannot reply to topics in this forum
    You cannot edit your posts in this forum
    You cannot delete your posts in this forum
    You cannot vote in polls in this forum
    You cannot attach files in this forum
    You cannot download files in this forum