BitTorrentTracker PerecTracker.org
BitTorrentTracker PerecTracker.org
    
Регистрация  ·  Вход
 
 · 
Забыли пароль?

  • Один из тысяч / Aayirathil Oruvan (К. Селварагхаван / K. Selvaraghavan) [2009, Индия, Триллер, мистика, приключения, DVDRip] MVO (Red Media) + Original + Sub rus

    Ответить на тему
     
    Автор Сообщение

    Columb

    Создавать темы 15-Дек-2013 20:38

           

    [Цитировать]

    Один из тысяч / Aayirathil Oruvan-Страна: Индия
    Жанр: триллер, мистика, приключения
    Год выпуска: 2009
    Продолжительность: 03:01:48-Язык: Тамили
    Перевод: Профессиональный (многоголосый закадровый) - Red Media
    Cубтитры: Pусские (только песни) [перевод: Margosha]--Режиссер: К. Селварагхаван / K. Selvaraghavan-В ролях: Картик Шивакумар, Рима Сен, Андреа, Партхибан, Пратхап К. Потхан--Описание: Когда-то в 12 веке нашей эры была война между двумя враждующими кланами: Чола и Пандии. Король Чола, чтобы спасти своего сына и насолить врагу, отправил его в сопровождении доверенного человека, колдуна, подальше от своего царства. И вместе с ними идол божества, которому поклонялись Пандии. Прошли века, потомки Пандиев так и не смогли найти ни сына короля Чола и потерянного идола. И вот однажды... (c) zvezdochkamoya-- | Трейлер | Сэмпл--Качество видео: DVDRip
    Формат видео: AVI-Видео: XviD, 672x288, 23.976 fps, 820 kbps-Аудио #1: 48 kHz, АС3, 2 ch, 192 kbps [Rus]-Аудио #2: 48 kHz, MP3, mono, 128 kbps [Orig]-Формат субтитров: softsub (SRT)-Доп. информация:
    • о субтитрах: внешние к песням
    -Перевод субтитров: Margosha (спасибо!)
    Сведение звука: soso4eg-Сэмпл / Sample--

    Скриншот с названием

    -

    Скриншоты

    -

    MI

    Общее
    Полное имя : Q:\[Релизы]\[DVDRip]\Odin.iz.tysyach.2010.DVDRip.XviD.BwTorrents\Odin.iz.tysyach.2010.DVDRip.XviD.BwTorrents.avi
    Формат : AVI
    Формат/Информация : Audio Video Interleave
    Размер файла : 1,47 Гбайт
    Продолжительность : 3 ч. 1 м.
    Общий поток : 1155 Кбит/сек
    Программа кодирования : VirtualDubMod 1.5.10.3 | www.virtualdub-fr.org || (build 2550/release)
    Видео
    Идентификатор : 0
    Формат : MPEG-4 Visual
    Профиль формата : Advanced Simple@L5
    Параметр BVOP формата : 2
    Параметр QPel формата : Нет
    Параметр GMC формата : Без точки перехода
    Параметр матрицы формата : Default (MPEG)
    Идентификатор кодека : XVID
    Идентификатор кодека/Подсказка : XviD
    Продолжительность : 3 ч. 1 м.
    Битрейт : 822 Кбит/сек
    Ширина : 672 пикселя
    Высота : 288 пикселей
    Соотношение сторон : 2,35:1
    Частота кадров : 23,976 кадра/сек
    Цветовое пространство : YUV
    Субдискретизация насыщенности : 4:2:0
    Битовая глубина : 8 бит
    Тип развёртки : Прогрессивная
    Метод сжатия : С потерями
    Бит/(Пиксели*Кадры) : 0.177
    Размер потока : 1,04 Гбайт (71%)
    Библиотека кодирования : XviD 1.2.1 (UTC 2008-12-04)
    Аудио #1
    Идентификатор : 1
    Формат : AC-3
    Формат/Информация : Audio Coding 3
    Расширение режима : CM (complete main)
    Параметр Endianness формата : Big
    Идентификатор кодека : 2000
    Продолжительность : 3 ч. 1 м.
    Вид битрейта : Постоянный
    Битрейт : 192 Кбит/сек
    Каналы : 2 канала
    Расположение каналов : Front: L R
    Частота : 48,0 КГц
    Битовая глубина : 16 бит
    Метод сжатия : С потерями
    Размер потока : 249 Мбайт (17%)
    Выравнивание : Разделение по промежуткам
    Продолжительность промежутка : 42 мс. (1,00 видеокадр)
    Время предзагрузки промежутка : 500 мс.
    Аудио #2
    Идентификатор : 2
    Формат : MPEG Audio
    Версия формата : Version 1
    Профиль формата : Layer 3
    Идентификатор кодека : 55
    Идентификатор кодека/Подсказка : MP3
    Продолжительность : 3 ч. 1 м.
    Вид битрейта : Постоянный
    Битрейт : 128 Кбит/сек
    Каналы : 1 канал
    Частота : 48,0 КГц
    Метод сжатия : С потерями
    Размер потока : 166 Мбайт (11%)
    Выравнивание : Соединение по промежуткам
    Продолжительность промежутка : 42 мс. (1,00 видеокадр)
    Время предзагрузки промежутка : 504 мс.
    Скачать .torrent

    Скачать торрент-файл бесплатно и на максимальной скорости!

    Как скачивать? · Что такое торрент? · Рейтинг и ограничения

    !ВНИМАНИЕ!
    Сайт не распространяет и не хранит электронные версии произведений, а занимается лишь лишь предоставлением доступа к создаваемому пользователями каталогу ссылок на торрент-файлы, которые содержат только списки хеш-сумм, убедительная просьба с жалобами обращаться напрямую к пользователю. Файлы для обмена на трекере предоставлены пользователями сайта, и администрация не несёт ответственности за их содержание. Просьба не заливать файлы, защищенные авторскими правами, а также файлы нелегального содержания!

    [Профиль] [ЛС]
    Показать сообщения:    
    Ответить на тему

    Текущее время: Сегодня, в 20:58

    Часовой пояс: GMT + 2



    Вы не можете начинать темы
    Вы не можете отвечать на сообщения
    Вы не можете редактировать свои сообщения
    Вы не можете удалять свои сообщения
    Вы не можете голосовать в опросах
    Вы не можете прикреплять файлы к сообщениям
    Вы не можете скачивать файлы