BitTorrentTracker PerecTracker.org
BitTorrentTracker PerecTracker.org
    
Регистрация  ·  Вход
 
 · 
Забыли пароль?

  • Во всем виноват Рио / Blame It On Rio (Стэнли Донен / Stanley Donen) [1984, США, Мелодрама, комедия, HDTVRip] MVO + AVO (Гаврилов) + AVO (Санаев)

    Ответить на тему
     
    Автор Сообщение

    Columb

    Создавать темы 15-Дек-2013 20:19

           

    [Цитировать]

    Во всем виноват Рио / Blame It On Rio
    Страна: США
    Жанр: Мелодрама, комедия
    Год выпуска: 1984
    Продолжительность: 01:39:54
    Перевод: Профессиональный (многоголосый закадровый)
    Перевод 2: Авторский (одноголосый закадровый) Гаврилов
    Перевод 3: Авторский (одноголосый закадровый) Санаев
    Cубтитры: нет
    Режиссер: Стэнли Донен / Stanley Donen
    В ролях: Майкл Кэйн (Michael Caine), Джозеф Болонья (Joseph Bologna), Валери Харпер (Valerie Harper), Мишель Джонсон (Michelle Johnson), Деми Мур (Demi Moore), Хосе Льюгой (Jose Lewgoy)
    Описание: 1. Двое друзей отправляются отдохнуть в Рио. Виктор привез с собой несовершеннолетнюю дочь Дженнифер (Мишель Джонсон - "Музей восковых фигур"), и Мэтью (Майкл Кейн - "Отпетые мошенники") сопровождает дочь Николь (Дэми Мур - "Стриптиз"). Колдовская атмосфера Рио, словно пропитанная эротикой и томными вожделениями, застает их врасплох.
    Виктор охотится за каждой женщиной, а Мэтью, верный своей супруге скромно сопровождает его дочь в ее развлечениях. Но возбуждающие бразильские ритмы и откровенные танцы на лунном пляже делают свое дело. Не в силах устоять перед неослабевающим натиском юной обольстительницы - дочки своего друга, Мэтью вступает с ней в интимные отношения. Однако, испугавшись своего поступка, он пытается любыми путями избегать Дженнифер, которая бесстрашно преследует любовника. Они снова и снова занимаются любовью, оказываясь в водовороте комических ситуаций и увлекая всех за собой...
    2.Римейк французского фильма "Один дикий момент". Мужчина средних лет (великолепная роль Кэйна) едет с другом (Болонья), со своей и его дочерью отдыхать в Рио, где влюбляется в несовершеннолетнюю подругу (Джонсон) своей дочурки (Мур явно нервничает в сценах, где ей приходится обнажаться), которая его явно соблазнила. Когда папа и друг об этом узнали, была мощная и очень смешная сцена. Все это переплетение комичных ситуаций происходит на фоне ослепительной экзотики Рио и под развеселую музыку. (Иванов М.)
    Качество видео: HDTVRip [Исходник 1080i]
    Формат видео: AVI
    Видео: 720x400 (1.80:1), 23.976 fps, XviD build 50 ~1878 kbps avg, 0.27 bit/pixel
    Аудио: 48 kHz, AC3 Dolby Digital, 2/0 (L,R) ch, ~192 kbps
    Аудио 2: 48 kHz, AC3 Dolby Digital, 2/0 (L,R) ch, ~192 kbps Гаврилов [отдельно]
    Аудио 3: 48 kHz, AC3 Dolby Digital, 2/0 (L,R) ch, ~192 kbps Санаев [отдельно]

    MediaInfo

    Во всем виноват Рио - Blame It on Rio\Во всем виноват Рио - Blame It on Rio [by Edich2].avi
    Format : AVI
    Format/Info : Audio Video Interleave
    File size : 1.45 GiB
    Duration : 1h 39mn
    Overall bit rate : 2 080 Kbps
    Movie name : Во всем виноват Рио - Blame It on Rio [by Edich2]
    Director : Rip by Edich2
    Writing application : VirtualDubMod 1.5.10.2 (build 2540/release)
    Comment : RuTracker.org
    Video
    ID : 0
    Format : MPEG-4 Visual
    Format profile : Advanced Simple@L5
    Format settings, BVOP : 2
    Format settings, QPel : No
    Format settings, GMC : No warppoints
    Format settings, Matrix : Custom
    Codec ID : XVID
    Codec ID/Hint : XviD
    Duration : 1h 39mn
    Bit rate : 1 879 Kbps
    Width : 720 pixels
    Height : 400 pixels
    Display aspect ratio : 16:9
    Frame rate : 23.976 fps
    Color space : YUV
    Chroma subsampling : 4:2:0
    Bit depth : 8 bits
    Scan type : Progressive
    Compression mode : Lossy
    Bits/(Pixel*Frame) : 0.272
    Stream size : 1.31 GiB (90%)
    Writing library : XviD 1.2.1 (UTC 2008-12-04)
    Audio
    ID : 1
    Format : AC-3
    Format/Info : Audio Coding 3
    Mode extension : CM (complete main)
    Format settings, Endianness : Big
    Codec ID : 2000
    Duration : 1h 39mn
    Bit rate mode : Constant
    Bit rate : 192 Kbps
    Channel count : 2 channels
    Channel positions : Front: L R
    Sampling rate : 48.0 KHz
    Bit depth : 16 bits
    Compression mode : Lossy
    Stream size : 137 MiB (9%)
    Alignment : Split accross interleaves
    Interleave, duration : 42 ms (1.00 video frame)
    Interleave, preload duration : 500 ms

    Скриншоты


    Скачать .torrent

    Скачать торрент-файл бесплатно и на максимальной скорости!

    Как скачивать? · Что такое торрент? · Рейтинг и ограничения

    !ВНИМАНИЕ!
    Сайт не распространяет и не хранит электронные версии произведений, а занимается лишь лишь предоставлением доступа к создаваемому пользователями каталогу ссылок на торрент-файлы, которые содержат только списки хеш-сумм, убедительная просьба с жалобами обращаться напрямую к пользователю. Файлы для обмена на трекере предоставлены пользователями сайта, и администрация не несёт ответственности за их содержание. Просьба не заливать файлы, защищенные авторскими правами, а также файлы нелегального содержания!

    [Профиль] [ЛС]
    Показать сообщения:    
    Ответить на тему

    Текущее время: Сегодня, в 16:11

    Часовой пояс: GMT + 2



    Вы не можете начинать темы
    Вы не можете отвечать на сообщения
    Вы не можете редактировать свои сообщения
    Вы не можете удалять свои сообщения
    Вы не можете голосовать в опросах
    Вы не можете прикреплять файлы к сообщениям
    Вы не можете скачивать файлы