BitTorrentTracker PerecTracker.org
BitTorrentTracker PerecTracker.org
    
Регистрация  ·  Вход
 
 · 
Забыли пароль?

  • Громовое сердце / Thunderheart (Майкл Эптид / Michael Apted) [1992, США, триллер, криминал, детектив, вестерн, WEB-DLRip-AVC] MVO + AVO (Живов) + Original Eng + Sub (Rus, eng)

    Ответить на тему
     
    Автор Сообщение

    Columb

    Создавать темы 15-Дек-2013 20:15

           

    [Цитировать]

    Громовое сердце / Thunderheart
    Страна: США
    Жанр: триллер, криминал, детектив, вестерн
    Год выпуска: 1992
    Продолжительность: 01:59:19
    Перевод 1: Профессиональный (многоголосый закадровый)
    Перевод 2: Авторский (одноголосый закадровый) (Живов)
    Cубтитры: русские, английские
    Оригинальная аудиодорожка: английский
    Навигация по главам: есть
    Режиссер: Майкл Эптид / Michael Apted
    В ролях: Вэл Килмер, Сэм Шепард, Грэм Грин, Фред Уорд, Фред Долтон Томпсон, Шила Таузи, Тед Тин Элк, Джон Труделл, Джулиус Драм, Сара Брейв
    Описание: Агента ФБР Рэя, в чьих жилах течет индейская кровь, отправляют в резервацию расследовать убийство, в котором подозревается борец за права этого немногочисленного народа. Там он знакомится с местным шерифом и вождем племени.
    По мере того, как Рэй приближается к цели, он все меньше уверен в виновности подозреваемого. В конце концов, агент понимает, что правительство США пытается его руками устранить неугодного человека. И в этот момент в нем просыпается Индеец, чье сердце не терпит несправедливости и лжи.
    "Фильм поставлен по реальным событиям, имевшим место в резервации индейцев сиу. Молодого агента ФБР Рэя (Килмер) (он полуиндейского происхождения) направляют туда, чтобы разобраться в убийствах, совершаемых так называемыми традиционалистами, ведущими борьбу за свои права и возврат к древним обычаям и образу жизни. Там уже работает опытный, пользующийся легендарной славой агент Кутелл (Пуллмэн). Все, что казалось таким простым в Вашингтоне, в резервации становится не просто сложным, но мистическим, потусторонним. Но фильм отнюдь не мистический, всему находится вполне прозаичное объяснение. На земле индейцев добывали уран, и многие, включая Кутелла, имели с этого крупные деньги. Уран отравлял реку, умирали люди. Тех, кто пытался остановить преступление, убивали, самих борцов объявляли убийцами. Хорошая, интересная картина." (© Иванов М.)
    Отдельная благодарность:
    Sunny - за видеодорожку и русские субтитры;
    keastwood - за звуковые дорожки с многолосым и авторским переводами.
    Качество видео: WEB-DLRip-AVC
    Формат видео: MKV
    Видео: 960x538; (1.7827); 23.976 fps; 1833 Kbps
    Аудио 2: Русский; AC3; 2 Ch; 48.0 KHz; 192 Kbps; | MVO
    Аудио 2: Русский; AC3; 2 Ch; 48.0 KHz; 192 Kbps; | AVO(Живов)
    Аудио 3: Английский; AC3; 2 Ch; 48.0 KHz; 256 Kbps; | Оригинал
    Формат субтитров: softsub (SRT)

    Медиаинфо

    -

    Лог

    raw [info]: 960x538p 1:1 @ 24000/1001 fps (cfr)
    x264 [info]: using SAR=1/1
    x264 [info]: using cpu capabilities: MMX2 SSE2Fast SSSE3 SSE4.2 AVX
    x264 [info]: profile High, level 4.1
    x264 [info]: frame I:43 Avg QP:18.36 size: 58574
    x264 [info]: frame P:813 Avg QP:22.02 size: 15861
    x264 [info]: frame B:1693 Avg QP:23.65 size: 5285
    x264 [info]: consecutive B-frames: 7.8% 10.7% 10.2% 61.2% 4.9% 2.1% 0.5% 2.5%
    x264 [info]: mb I I16..4: 8.0% 74.2% 17.8%
    x264 [info]: mb P I16..4: 3.5% 15.0% 2.3% P16..4: 35.1% 32.1% 7.0% 0.0% 0.0% skip: 4.9%
    x264 [info]: mb B I16..4: 0.5% 1.9% 0.2% B16..8: 34.8% 15.3% 1.9% direct: 4.1% skip:41.2% L0:37.7% L1:51.3% BI:11.0%
    x264 [info]: 8x8 transform intra:72.5% inter:66.0%
    x264 [info]: direct mvs spatial:97.2% temporal:2.8%
    x264 [info]: coded y,uvDC,uvAC intra: 70.9% 54.2% 16.6% inter: 21.1% 10.7% 0.9%
    x264 [info]: i16 v,h,dc,p: 24% 21% 7% 49%
    x264 [info]: i8 v,h,dc,ddl,ddr,vr,hd,vl,hu: 9% 8% 6% 9% 12% 13% 14% 12% 17%
    x264 [info]: i4 v,h,dc,ddl,ddr,vr,hd,vl,hu: 14% 10% 7% 7% 13% 13% 12% 10% 13%
    x264 [info]: i8c dc,h,v,p: 24% 39% 20% 17%
    x264 [info]: Weighted P-Frames: Y:5.0% UV:1.4%
    x264 [info]: ref P L0: 61.2% 12.2% 12.1% 3.9% 2.7% 2.1% 1.6% 0.9% 0.8% 0.7% 0.5% 0.5% 0.4% 0.4% 0.1% 0.0%
    x264 [info]: ref B L0: 85.9% 6.7% 2.8% 1.2% 0.9% 0.7% 0.6% 0.3% 0.3% 0.2% 0.2% 0.2% 0.1%
    x264 [info]: ref B L1: 95.9% 4.1%
    x264 [info]: kb/s:1833.13
    -Общее
    Уникальный идентификатор : 190720262801418534281358268301600310787 (0x8F7B62F2852FCD17B3F94B60ABAF4603)
    Полное имя : D:\3GP\Раздачи\Thunderheart_1992-WEB-DLRip-AVC.mkv
    Формат : Matroska
    Версия формата : Version 2
    Размер файла : 2,07 Гбайт
    Продолжительность : 1 ч. 59 м.
    Общий поток : 2481 Кбит/сек
    Название фильма : Thunderheart.1992
    Дата кодирования : UTC 2013-12-15 15:12:54
    Программа кодирования : mkvmerge v5.1.0 ('And so it goes') built on Nov 28 2011 23:58:28
    Библиотека кодирования : libebml v1.2.3 + libmatroska v1.3.0
    Видео
    Идентификатор : 1
    Формат : AVC
    Формат/Информация : Advanced Video Codec
    Профиль формата : High@L4.1
    Параметр CABAC формата : Да
    Параметр ReFrames формата : 14 кадров
    Идентификатор кодека : V_MPEG4/ISO/AVC
    Продолжительность : 1 ч. 59 м.
    Битрейт : 1839 Кбит/сек
    Ширина : 960 пикселей
    Высота : 538 пикселей
    Соотношение сторон : 16:9
    Режим частоты кадров : Постоянный
    Частота кадров : 23,976 кадра/сек
    Цветовое пространство : YUV
    Субдискретизация насыщенности : 4:2:0
    Битовая глубина : 8 бит
    Тип развёртки : Прогрессивная
    Бит/(Пиксели*Кадры) : 0.149
    Размер потока : 1,49 Гбайт (72%)
    Библиотека кодирования : x264 core 133 r2334 a3ac64b
    Настройки программы : cabac=1 / ref=14 / deblock=1:0:0 / analyse=0x3:0x113 / me=umh / subme=11 / psy=1 / psy_rd=0.90:0.00 / mixed_ref=1 / me_range=24 / chroma_me=1 / trellis=2 / 8x8dct=1 / cqm=0 / deadzone=21,11 / fast_pskip=0 / chroma_qp_offset=-2 / threads=12 / lookahead_threads=2 / sliced_threads=0 / nr=0 / decimate=0 / interlaced=0 / bluray_compat=0 / constrained_intra=0 / bframes=7 / b_pyramid=2 / b_adapt=2 / b_bias=0 / direct=3 / weightb=1 / open_gop=0 / weightp=2 / keyint=250 / keyint_min=23 / scenecut=40 / intra_refresh=0 / rc_lookahead=60 / rc=2pass / mbtree=1 / bitrate=1839 / ratetol=1.0 / qcomp=0.70 / qpmin=0 / qpmax=55 / qpstep=4 / cplxblur=20.0 / qblur=0.5 / vbv_maxrate=50000 / vbv_bufsize=62500 / nal_hrd=none / ip_ratio=1.35 / aq=1:0.90
    Default : Да
    Forced : Нет
    Основные цвета : BT.709
    Характеристики трансфера : BT.709
    Коэффициенты матрицы : BT.709
    Аудио #1
    Идентификатор : 2
    Формат : AC-3
    Формат/Информация : Audio Coding 3
    Расширение режима : CM (complete main)
    Параметр Endianness формата : Big
    Идентификатор кодека : A_AC3
    Продолжительность : 1 ч. 59 м.
    Вид битрейта : Постоянный
    Битрейт : 192 Кбит/сек
    Каналы : 2 канала
    Расположение каналов : Front: L R
    Частота : 48,0 КГц
    Битовая глубина : 16 бит
    Метод сжатия : С потерями
    Размер потока : 164 Мбайт (8%)
    Заголовок : MVO
    Язык : Russian
    Default : Да
    Forced : Нет
    Аудио #2
    Идентификатор : 3
    Формат : AC-3
    Формат/Информация : Audio Coding 3
    Расширение режима : CM (complete main)
    Параметр Endianness формата : Big
    Идентификатор кодека : A_AC3
    Продолжительность : 1 ч. 59 м.
    Вид битрейта : Постоянный
    Битрейт : 192 Кбит/сек
    Каналы : 2 канала
    Расположение каналов : Front: L R
    Частота : 48,0 КГц
    Битовая глубина : 16 бит
    Метод сжатия : С потерями
    Размер потока : 164 Мбайт (8%)
    Заголовок : AVO (Jivov)
    Язык : Russian
    Default : Нет
    Forced : Нет
    Аудио #3
    Идентификатор : 4
    Формат : AC-3
    Формат/Информация : Audio Coding 3
    Расширение режима : CM (complete main)
    Параметр Endianness формата : Big
    Идентификатор кодека : A_AC3
    Продолжительность : 1 ч. 59 м.
    Вид битрейта : Постоянный
    Битрейт : 256 Кбит/сек
    Каналы : 2 канала
    Расположение каналов : Front: L R
    Частота : 48,0 КГц
    Битовая глубина : 16 бит
    Метод сжатия : С потерями
    Размер потока : 218 Мбайт (10%)
    Заголовок : Original
    Язык : English
    Default : Нет
    Forced : Нет
    Текст #1
    Идентификатор : 5
    Формат : UTF-8
    Идентификатор кодека : S_TEXT/UTF8
    Идентификатор кодека/Информация : UTF-8 Plain Text
    Язык : Russian
    Default : Нет
    Forced : Нет
    Текст #2
    Идентификатор : 6
    Формат : UTF-8
    Идентификатор кодека : S_TEXT/UTF8
    Идентификатор кодека/Информация : UTF-8 Plain Text
    Язык : English
    Default : Нет
    Forced : Нет
    Меню
    00:00:00.000 : en:1
    00:06:58.000 : en:2
    00:13:31.000 : en:3
    00:24:27.000 : en:4
    00:34:50.000 : en:5
    00:37:15.000 : en:6
    00:43:33.000 : en:7
    00:51:50.000 : en:8
    00:55:47.000 : en:9
    01:04:06.000 : en:10
    01:13:27.000 : en:11
    01:22:12.000 : en:12
    01:30:21.000 : en:13
    01:36:09.000 : en:14
    01:42:10.000 : en:15
    01:46:11.000 : en:16

    Скриншоты

    Скачать .torrent

    Скачать торрент-файл бесплатно и на максимальной скорости!

    Как скачивать? · Что такое торрент? · Рейтинг и ограничения

    !ВНИМАНИЕ!
    Сайт не распространяет и не хранит электронные версии произведений, а занимается лишь лишь предоставлением доступа к создаваемому пользователями каталогу ссылок на торрент-файлы, которые содержат только списки хеш-сумм, убедительная просьба с жалобами обращаться напрямую к пользователю. Файлы для обмена на трекере предоставлены пользователями сайта, и администрация не несёт ответственности за их содержание. Просьба не заливать файлы, защищенные авторскими правами, а также файлы нелегального содержания!

    [Профиль] [ЛС]
    Показать сообщения:    
    Ответить на тему

    Текущее время: Сегодня, в 10:45

    Часовой пояс: GMT + 2



    Вы не можете начинать темы
    Вы не можете отвечать на сообщения
    Вы не можете редактировать свои сообщения
    Вы не можете удалять свои сообщения
    Вы не можете голосовать в опросах
    Вы не можете прикреплять файлы к сообщениям
    Вы не можете скачивать файлы