BitTorrentTracker PerecTracker.org
BitTorrentTracker PerecTracker.org
    
Регистрация  ·  Вход
 
 · 
Забыли пароль?

  • Ловец солнца / The Sunchaser (Майкл Чимино / Michael Cimino) [1996, США, Драма, криминал, DVDRip-AVC] DVO (ОРТ) + AVO + Original Eng

    Ответить на тему
     
    Автор Сообщение

    Columb

    Создавать темы 15-Дек-2013 20:07

           

    [Цитировать]

    Ловец солнца / The Sunchaser
    Страна: США
    Жанр: Драма, криминал
    Год выпуска: 1996
    Продолжительность: 02:02:20
    Перевод: Профессиональный (двухголосый закадровый) ОРТ
    Перевод 2: Авторский (одноголосый закадровый) Горчаков
    Cубтитры: нет
    Оригинальная аудиодорожка: английский
    Режиссер: Майкл Чимино / Michael Cimino
    В ролях: Вуди Харрельсон, Джон Седа, Александра Тайдингс, Мэтт Малхерн, Талиса Сото, Ричард Бауэр, Виктор Эрон, Лоуренс Прессмэн, Майкл О'Нилл, Хэрри Кэри-младший, Энн Бэнкрофт
    Описание: Смертельно больной преступник захватывает в заложники преуспевающего лос-анжелесского врача. Начинается головокружительная погоня по Западу Соединенных Штатов. Кто останется в живых и так ли уж глубока пропасть между злодеем и жертвой?
    Качество видео: DVDRip-AVC
    Формат видео: MKV
    Видео: 720x360@853x360, (2,35:1), 23.976 fps, ~1850 kbps
    Аудио 1: Russian, AC3, 2ch, 48 kHz, 192 kbps (DVO, ОРТ)
    Аудио 2: Russian, AC3, 2ch, 48 kHz, 192 kbps (АVO, В. Горчаков)
    Аудио 3: English, AC3, 2ch, 48 kHz, 192 kbps

    Медиаинфо

    -

    Лог

    raw [info]: 720x360p 32:27 @ 24000/1001 fps (cfr)
    x264 [info]: using SAR=32/27
    x264 [info]: using cpu capabilities: MMX2 SSE2Fast SSSE3 SSE4.2 AVX
    x264 [info]: profile High, level 4.1
    x264 [info]: frame I:1319 Avg QP:14.05 size: 43034
    x264 [info]: frame P:38840 Avg QP:16.49 size: 18569
    x264 [info]: frame B:135891 Avg QP:18.06 size: 6767
    x264 [info]: consecutive B-frames: 2.1% 3.4% 10.0% 16.2% 13.0% 48.1% 4.8% 1.3% 1.0%
    x264 [info]: mb I I16..4: 2.7% 87.5% 9.8%
    x264 [info]: mb P I16..4: 1.0% 27.3% 1.7% P16..4: 23.4% 29.2% 13.7% 1.8% 0.2% skip: 1.8%
    x264 [info]: mb B I16..4: 0.2% 3.4% 0.2% B16..8: 33.1% 25.0% 4.9% direct: 9.8% skip:23.5% L0:40.0% L1:39.7% BI:20.3%
    x264 [info]: 8x8 transform intra:90.6% inter:63.9%
    x264 [info]: direct mvs spatial:98.3% temporal:1.7%
    x264 [info]: coded y,uvDC,uvAC intra: 92.8% 83.8% 60.7% inter: 39.3% 33.0% 11.9%
    x264 [info]: i16 v,h,dc,p: 20% 13% 4% 62%
    x264 [info]: i8 v,h,dc,ddl,ddr,vr,hd,vl,hu: 14% 10% 12% 9% 11% 11% 10% 12% 12%
    x264 [info]: i4 v,h,dc,ddl,ddr,vr,hd,vl,hu: 17% 10% 7% 8% 13% 14% 12% 10% 10%
    x264 [info]: i8c dc,h,v,p: 39% 24% 21% 16%
    x264 [info]: Weighted P-Frames: Y:13.5% UV:5.5%
    x264 [info]: ref P L0: 40.8% 11.5% 17.5% 7.8% 5.7% 3.8% 3.2% 2.3% 1.8% 1.5% 1.3% 1.4% 1.2% 0.2% 0.0%
    x264 [info]: ref B L0: 75.1% 10.7% 4.5% 2.7% 1.8% 1.4% 1.1% 0.8% 0.7% 0.6% 0.4% 0.2%
    x264 [info]: ref B L1: 94.0% 6.0%
    x264 [info]: kb/s:1849.46
    -Общее
    Уникальный идентификатор : 229175593235069392014087907169256580099 (0xAC699D1EF194347BB724F8A47637A403)
    Полное имя : D:\3GP\Раздачи\Lovec solnca_1996_DVDRip-AVC.mkv
    Формат : Matroska
    Версия формата : Version 2
    Размер файла : 2,08 Гбайт
    Продолжительность : 2 ч. 2 м.
    Общий поток : 2428 Кбит/сек
    Дата кодирования : UTC 2013-12-15 07:55:13
    Программа кодирования : mkvmerge v5.1.0 ('And so it goes') built on Nov 28 2011 23:58:28
    Библиотека кодирования : libebml v1.2.3 + libmatroska v1.3.0
    Видео
    Идентификатор : 1
    Формат : AVC
    Формат/Информация : Advanced Video Codec
    Профиль формата : High@L4.1
    Параметр CABAC формата : Да
    Параметр ReFrames формата : 13 кадров
    Идентификатор кодека : V_MPEG4/ISO/AVC
    Продолжительность : 2 ч. 2 м.
    Битрейт : 1850 Кбит/сек
    Ширина : 720 пикселей
    Высота : 360 пикселей
    Соотношение сторон : 2,35:1
    Соотношение сторон в оригинале : 2,40:1
    Режим частоты кадров : Постоянный
    Частота кадров : 23,976 кадра/сек
    Цветовое пространство : YUV
    Субдискретизация насыщенности : 4:2:0
    Битовая глубина : 8 бит
    Тип развёртки : Прогрессивная
    Бит/(Пиксели*Кадры) : 0.298
    Размер потока : 1,54 Гбайт (74%)
    Библиотека кодирования : x264 core 133 r2334 a3ac64b
    Настройки программы : cabac=1 / ref=13 / deblock=1:-2:-2 / analyse=0x3:0x133 / me=umh / subme=11 / psy=1 / psy_rd=1.00:0.00 / mixed_ref=1 / me_range=16 / chroma_me=1 / trellis=2 / 8x8dct=1 / cqm=0 / deadzone=21,11 / fast_pskip=0 / chroma_qp_offset=-2 / threads=12 / lookahead_threads=2 / sliced_threads=0 / nr=0 / decimate=0 / interlaced=0 / bluray_compat=0 / constrained_intra=0 / bframes=8 / b_pyramid=2 / b_adapt=2 / b_bias=0 / direct=3 / weightb=1 / open_gop=0 / weightp=2 / keyint=250 / keyint_min=23 / scenecut=40 / intra_refresh=0 / rc=2pass / mbtree=0 / bitrate=1850 / ratetol=1.0 / qcomp=0.60 / qpmin=0 / qpmax=69 / qpstep=4 / cplxblur=20.0 / qblur=0.5 / ip_ratio=1.40 / pb_ratio=1.30 / aq=1:1.00
    Default : Да
    Forced : Нет
    Основные цвета : BT.601 NTSC
    Характеристики трансфера : BT.601
    Коэффициенты матрицы : BT.601
    Аудио #1
    Идентификатор : 2
    Формат : AC-3
    Формат/Информация : Audio Coding 3
    Расширение режима : CM (complete main)
    Параметр Endianness формата : Big
    Идентификатор кодека : A_AC3
    Продолжительность : 2 ч. 2 м.
    Вид битрейта : Постоянный
    Битрейт : 192 Кбит/сек
    Каналы : 2 канала
    Расположение каналов : Front: L R
    Частота : 48,0 КГц
    Битовая глубина : 16 бит
    Метод сжатия : С потерями
    Задержка видео : 16 мс.
    Размер потока : 168 Мбайт (8%)
    Заголовок : DVO-OPT
    Язык : Russian
    Default : Да
    Forced : Нет
    Аудио #2
    Идентификатор : 3
    Формат : AC-3
    Формат/Информация : Audio Coding 3
    Расширение режима : CM (complete main)
    Параметр Endianness формата : Big
    Идентификатор кодека : A_AC3
    Продолжительность : 2 ч. 2 м.
    Вид битрейта : Постоянный
    Битрейт : 192 Кбит/сек
    Каналы : 2 канала
    Расположение каналов : Front: L R
    Частота : 48,0 КГц
    Битовая глубина : 16 бит
    Метод сжатия : С потерями
    Задержка видео : 16 мс.
    Размер потока : 168 Мбайт (8%)
    Заголовок : AVO-Горчаков
    Язык : Russian
    Default : Нет
    Forced : Нет
    Аудио #3
    Идентификатор : 4
    Формат : AC-3
    Формат/Информация : Audio Coding 3
    Профиль формата : Dolby Digital
    Расширение режима : CM (complete main)
    Параметр Endianness формата : Big
    Идентификатор кодека : A_AC3
    Продолжительность : 2 ч. 2 м.
    Вид битрейта : Постоянный
    Битрейт : 192 Кбит/сек
    Каналы : 2 канала
    Расположение каналов : Front: L R
    Частота : 48,0 КГц
    Битовая глубина : 16 бит
    Метод сжатия : С потерями
    Задержка видео : 16 мс.
    Размер потока : 168 Мбайт (8%)
    Язык : English
    Default : Нет
    Forced : Нет

    Скриншоты

    Скачать .torrent

    Скачать торрент-файл бесплатно и на максимальной скорости!

    Как скачивать? · Что такое торрент? · Рейтинг и ограничения

    !ВНИМАНИЕ!
    Сайт не распространяет и не хранит электронные версии произведений, а занимается лишь лишь предоставлением доступа к создаваемому пользователями каталогу ссылок на торрент-файлы, которые содержат только списки хеш-сумм, убедительная просьба с жалобами обращаться напрямую к пользователю. Файлы для обмена на трекере предоставлены пользователями сайта, и администрация не несёт ответственности за их содержание. Просьба не заливать файлы, защищенные авторскими правами, а также файлы нелегального содержания!

    [Профиль] [ЛС]
    Показать сообщения:    
    Ответить на тему

    Текущее время: Сегодня, в 14:09

    Часовой пояс: GMT + 2



    Вы не можете начинать темы
    Вы не можете отвечать на сообщения
    Вы не можете редактировать свои сообщения
    Вы не можете удалять свои сообщения
    Вы не можете голосовать в опросах
    Вы не можете прикреплять файлы к сообщениям
    Вы не можете скачивать файлы