Register  ·  Log in
Forgot password?

  • Хорошая жена / The Good Wife / The Umbrella Woman (Кен Кэмерон / Ken Cameron) [1987, Австралия, драма, HDTVRip] DVO (НТВ+)

    Reply to topic
    Author Message


    Post 15-Dec-2013 21:04



    Хорошая жена / The Good Wife / The Umbrella Woman
    Страна: Австралия
    Жанр: драма
    Год выпуска: 1987
    Продолжительность: 01:33:34
    Перевод: Профессиональный (двухголосый закадровый) НТВ+
    Cубтитры: нет
    Режиссер: Кен Кэмерон / Ken Cameron
    В ролях: Рэйчел Уорд, Сэм Нилл, Брайан Браун, Стивен Видлер, Дженнифер Клэр, Брюс Бэрри, Питер Камминс, Кароль Скиннер, Бэрри Хилл, Сьюзэн Лайонс, Хелен Джонс, Лиза Хенсли, Мэй Хоулетт, Морин Грин, Морис Хьюз, Билл Бейдер, Тревор Томас, Питер Форд, ..
    Описание: Конец 1930-х годов, австралийская глубинка. Красавица Мардж живет со своим безропотным мужем, лесорубом Сонни. Неожиданно к ним приезжает погостить брат мужа, Шугер. Спустя какое-то время он просит у Сонни разрешения… переспать с его женой. Сонни соглашается, но из этого ничего не выходит. Тем временем в городе появляется обворожительный бармен Невилл…
    Доп. информация: За предоставленный рип благодарим Ledy_X
    "Спасибы" просьба ПИСАТЬ в теме, тем самым вы продлеваете жизнь раздаче.
    Качество видео: HDTVRip [Исходник 1080i]
    Формат видео: AVI
    Видео: 720x384 (1.88:1), 25 fps, XviD build 50 ~1999 kbps avg, 0.29 bit/pixel
    Аудио: 48 kHz, AC3 Dolby Digital, 2/0 (L,R) ch, ~192 kbps


    Хорошая жена - The Good Wife [Rip by Ledy_X].avi
    Format : AVI
    Format/Info : Audio Video Interleave
    File size : 1.44 GiB
    Duration : 1h 33mn
    Overall bit rate : 2 202 Kbps
    Movie name : Хорошая жена - The Good Wife [Rip by Ledy_X]
    Director : Rip by Ledy_X
    Writing application : VirtualDubMod | || (build 2550/release)
    Copyright : Edich2
    Comment :
    ID : 0
    Format : MPEG-4 Visual
    Format profile : Advanced Simple@L5
    Format settings, BVOP : 2
    Format settings, QPel : No
    Format settings, GMC : No warppoints
    Format settings, Matrix : Custom
    Codec ID : XVID
    Codec ID/Hint : XviD
    Duration : 1h 33mn
    Bit rate : 2 000 Kbps
    Width : 720 pixels
    Height : 384 pixels
    Display aspect ratio : 1.85:1
    Frame rate : 25.000 fps
    Color space : YUV
    Chroma subsampling : 4:2:0
    Bit depth : 8 bits
    Scan type : Progressive
    Compression mode : Lossy
    Bits/(Pixel*Frame) : 0.289
    Stream size : 1.31 GiB (91%)
    Writing library : XviD 1.2.1 (UTC 2008-12-04)
    ID : 1
    Format : AC-3
    Format/Info : Audio Coding 3
    Mode extension : CM (complete main)
    Format settings, Endianness : Big
    Codec ID : 2000
    Duration : 1h 33mn
    Bit rate mode : Constant
    Bit rate : 192 Kbps
    Channel count : 2 channels
    Channel positions : Front: L R
    Sampling rate : 48.0 KHz
    Bit depth : 16 bits
    Compression mode : Lossy
    Stream size : 129 MiB (9%)
    Alignment : Split accross interleaves
    Interleave, duration : 40 ms (1.00 video frame)
    Interleave, preload duration : 500 ms


    Download .torrent

    Download free and at maximum speed!

    How to Download? · What is a torrent? · Ratings and Limitations

    The site does not extend and does not store electronic(digital) versions of products, and only gives access to a reference catalogue created by users on torrent-files which contain only lists of the hash-sums, the earnest entreaty, with complaints(abuse) to access directly to the user. Files for an exchange on tracker are given by users of a site, and the administration does not bear the responsibility for their maintenance. The request to not fill in the files protected by copyrights, and also files of the illegal maintenance!

    [Profile] [PM]
    Display posts from previous:    
    Reply to topic

    The time now is: Today 08:08

    All times are GMT + 3 Hours

    You cannot post new topics in this forum
    You cannot reply to topics in this forum
    You cannot edit your posts in this forum
    You cannot delete your posts in this forum
    You cannot vote in polls in this forum
    You cannot attach files in this forum
    You cannot download files in this forum