BitTorrentTracker PerecTracker.org
BitTorrentTracker PerecTracker.org
    
Регистрация  ·  Вход
 
 · 
Забыли пароль?

  • Любовь и Тьма неприятностей (ТВ-3)/ To Love-Ru -Trouble- Darkness [TV] [12 из 12] [Без хардсаба] [RUS(int)] [2012 г., романтика, этти, комедия, BDRip][720p][HD]

    Ответить на тему
     
    Автор Сообщение

    Columb

    Создавать темы 15-Дек-2013 10:01

           

    [Цитировать]

    Любовь и Тьма неприятностей / To Love-Ru -Trouble- Darkness
    Страна: Япония
    Год выпуска: 2012 г.
    Жанр: романтика, этти, комедия
    Тип: TV
    Продолжительность: 12 эп, ~25 мин. серия
    Режиссер: Оцуки Ацуси
    Студия: XEBEC
    Описание: И снова Юки Рито в центре событий! Ему все так же придется бороться с не хорошими пришельцами и разбираться в своих чувствах к Харуне и принцессам Девелюка.
    Больше трусиков, больше пикантностей и смеха!
    Качество: BDRip
    Тип релиза: Без хардсаба
    Формат видео: MP4
    Релиз/Автор рипа: [encoded by SEED]
    Совместимость с бытовыми плеерами: Да
    Кодек: h.264 - 8bit
    Видео: 1280x720, ~1100 Кбит/сек, 23,976 кадра/сек
    Аудио: AC3, 192 Кбит/сек, 48 КГц, 2CH Язык Русский (в составе контейнера) ; Озвучка: Cuba77

    Подробные тех. данные

    ОбщееПолное имя : G:\Anime HD\To Love-Ru Trouble - Любовные Неприятности\2012 - 3 сезон - Любовь и Тьма неприятностей\To Love-Ru Trouble Darkness - 01.mp4Формат : MPEG-4Профиль формата : Base MediaИдентификатор кодека : isomРазмер файла : 232 МбайтПродолжительность : 23 м.Общий поток : 1369 Кбит/секДата кодирования : UTC 2013-12-14 17:22:55Дата пометки : UTC 2013-12-14 17:22:55Программа кодирования : MkvToMp4 [www.mkvtomp4.ru] version 0.224 (x64)
    ВидеоИдентификатор : 1Формат : AVCФормат/Информация : Advanced Video CodecПрофиль формата : High@L4.0Параметр CABAC формата : ДаПараметр ReFrames формата : 6 кадровИдентификатор кодека : avc1Идентификатор кодека/Информация : Advanced Video CodingПродолжительность : 23 м.Битрейт : 1187 Кбит/секМаксимальный битрейт : 11,0 Мбит/секШирина : 1280 пикселейВысота : 720 пикселейСоотношение сторон : 16:9Режим частоты кадров : ПостоянныйЧастота кадров : 23,976 кадра/секЦветовое пространство : YUVСубдискретизация насыщенности : 4:2:0Битовая глубина : 8 битТип развёртки : ПрогрессивнаяБит/(Пиксели*Кадры) : 0.054Размер потока : 201 Мбайт (87%)Заголовок : VideoЯзык : EnglishДата кодирования : UTC 2013-12-14 17:22:55Дата пометки : UTC 2013-12-14 17:23:19
    АудиоИдентификатор : 2Формат : AC-3Формат/Информация : Audio Coding 3Расширение режима : CM (complete main)Параметр Endianness формата : BigИдентификатор кодека : ac-3Продолжительность : 22 м.Вид битрейта : ПостоянныйБитрейт : 192 Кбит/секКаналы : 2 каналаРасположение каналов : Front: L RЧастота : 48,0 КГцБитовая глубина : 16 битМетод сжатия : С потерямиРазмер потока : 30,4 Мбайт (13%)Язык : EnglishДата кодирования : UTC 2013-12-14 17:22:59Дата пометки : UTC 2013-12-14 17:23:19

    Список эпизодов

    1. Continue
    06.10.2012, 25 мин.
    2. Doubt and Dish
    13.10.2012, 25 мин.
    3. Each Speculation
    20.10.2012, 25 мин.
    4. True Smile: The Past, Friends and a Smile
    27.10.2012, 25 мин.
    5. A Man? Woman? Changes
    03.11.2012, 25 мин.
    6. Metamorphose: A Time of Change
    10.11.2012, 25 мин.
    7. Sisters
    17.11.2012, 25 мин.
    8. Bad Mood
    01.12.2012, 25 мин.
    9. True Self
    08.12.2012, 25 мин.
    10. Past
    15.12.2012, 25 мин.
    11. The Right Thing
    22.12.2012, 25 мин.
    12. Room
    29.12.2012, 25 мин.

    Скриншоты

    Скачать .torrent

    Скачать торрент-файл бесплатно и на максимальной скорости!

    Как скачивать? · Что такое торрент? · Рейтинг и ограничения

    !ВНИМАНИЕ!
    Сайт не распространяет и не хранит электронные версии произведений, а занимается лишь лишь предоставлением доступа к создаваемому пользователями каталогу ссылок на торрент-файлы, которые содержат только списки хеш-сумм, убедительная просьба с жалобами обращаться напрямую к пользователю. Файлы для обмена на трекере предоставлены пользователями сайта, и администрация не несёт ответственности за их содержание. Просьба не заливать файлы, защищенные авторскими правами, а также файлы нелегального содержания!

    [Профиль] [ЛС]
    Показать сообщения:    
    Ответить на тему

    Текущее время: Сегодня, в 09:11

    Часовой пояс: GMT + 2



    Вы не можете начинать темы
    Вы не можете отвечать на сообщения
    Вы не можете редактировать свои сообщения
    Вы не можете удалять свои сообщения
    Вы не можете голосовать в опросах
    Вы не можете прикреплять файлы к сообщениям
    Вы не можете скачивать файлы