Register  ·  Log in
Forgot password?

  • Козы / Козлиный остров / Standing Up / Goat Island (Ди Джей Карузо / D.J. Caruso) [2013, США, Драма, семейный, WEB-DLRip] VO (humbert sound studio)

    Reply to topic
    Author Message


    Post 14-Dec-2013 11:50



    Козы / Козлиный остров / Standing Up / Goat Island«They ran away and found themselves»-Страна: США
    Жанр: Драма, семейный
    Год выпуска: 2013
    Продолжительность: 01:33:12-Перевод: Одноголосый закадровый [humbert sound studio]
    Cубтитры: нет-Режиссер: Ди Джей Карузо / D.J. Caruso-В ролях: Чандлер Кентербери, Анналиса Бассо, Рада Митчелл, Вэл Килмер, Кейт Флиппен, Уильям Дж. Харрисон, Джаред Кеммерлинг, Кейт Маберли, Блейк Гриффин, Чарльз Кэррол-Описание: Двух подростков — жертв жестокого розыгрыша, популярного в их летнем лагере — раздевают догола и оставляют ночевать на безлюдном острове. Вместо того, чтобы униженными вернуться в лагерь, они решают сбежать. Впереди их ждет трехдневная одиссея, полная неожиданных открытий.-Sample | IMDB | КиноПоиск-Тип релиза: WEB-DLRip [исх. WEB-DL 1080p]
    Формат видео: AVI-Видео: 720x288 (2.50:1), 23.976 fps, XviD build 50, 2045 kbps avg, 0.41 bit/pixel
    Аудио: 48 kHz, AC3 Dolby Digital, 2/0 (L,R) ch, 192.00 kbps avg [Russian_VO]-


    Complete name : D:\Мои раздачи\Standing Up_WEB-DLRip_RG_All_Films.avi
    Format : AVI
    Format/Info : Audio Video Interleave
    File size : 1.46 GiB
    Duration : 1h 33mn
    Overall bit rate : 2 247 Kbps
    Writing application : VirtualDubMod SURROUND (build 2560/release)
    Writing library : VirtualDubMod build 2560/release
    ID : 0
    Format : MPEG-4 Visual
    Format profile : Advanced Simple@L5
    Format settings, BVOP : Yes
    Format settings, QPel : No
    Format settings, GMC : No warppoints
    Format settings, Matrix : Custom
    Codec ID : XVID
    Codec ID/Hint : XviD
    Duration : 1h 33mn
    Bit rate : 2 046 Kbps
    Width : 720 pixels
    Height : 288 pixels
    Display aspect ratio : 2.500
    Frame rate : 23.976 fps
    Color space : YUV
    Chroma subsampling : 4:2:0
    Bit depth : 8 bits
    Scan type : Progressive
    Compression mode : Lossy
    Bits/(Pixel*Frame) : 0.411
    Stream size : 1.33 GiB (91%)
    Writing library : XviD 1.2.1 (UTC 2008-12-04)
    ID : 1
    Format : AC-3
    Format/Info : Audio Coding 3
    Mode extension : CM (complete main)
    Codec ID : 2000
    Duration : 1h 33mn
    Bit rate mode : Constant
    Bit rate : 192 Kbps
    Channel(s) : 2 channels
    Channel positions : Front: L R
    Sampling rate : 48.0 KHz
    Bit depth : 16 bits
    Compression mode : Lossy
    Stream size : 128 MiB (9%)
    Alignment : Split accross interleaves
    Interleave, duration : 42 ms (1.00 video frame)
    Interleave, preload duration : 500 ms


    Download .torrent

    Download free and at maximum speed!

    How to Download? · What is a torrent? · Ratings and Limitations

    The site does not extend and does not store electronic(digital) versions of products, and only gives access to a reference catalogue created by users on torrent-files which contain only lists of the hash-sums, the earnest entreaty, with complaints(abuse) to access directly to the user. Files for an exchange on tracker are given by users of a site, and the administration does not bear the responsibility for their maintenance. The request to not fill in the files protected by copyrights, and also files of the illegal maintenance!

    [Profile] [PM]


    Post 12-Jan-2014 20:07 (after 29 days)


    Топик был перенесен из форума Зарубежные Фильмы (Новинки) в форум Фильмы 2011-2013


    Как бы ты высоко не летал, не забывай, с кем ты ползал..
    Display posts from previous:    
    Reply to topic

    The time now is: Today 13:49

    All times are GMT + 3 Hours

    You cannot post new topics in this forum
    You cannot reply to topics in this forum
    You cannot edit your posts in this forum
    You cannot delete your posts in this forum
    You cannot vote in polls in this forum
    You cannot attach files in this forum
    You cannot download files in this forum