BitTorrentTracker PerecTracker.org
BitTorrentTracker PerecTracker.org
    
Регистрация  ·  Вход
 
 · 
Забыли пароль?

  • XXVI Всемирная Зимняя Универсиада 2013. Трентино (Италия). Индивидуальная гонка 15 км. Женщины / Россия 2 [13.12.2013 г., Биатлон, SATRip, XviD]

    Ответить на тему
     
    Автор Сообщение

    Columb

    Создавать темы 14-Дек-2013 10:38

           

    [Цитировать]

    XXVI Всемирная Зимняя Универсиада 2013. Трентино (Италия). Индивидуальная гонка 15 км. Женщины
    Вид спорта: Биатлон
    Комментарий: Профессиональный
    Язык комментариев: Русский (Алексей Осин)
    Описание: Женская индивидуальная гонка 15 км на XXVI Всемирной Зимней Универсиаде в итальянском Трентино.-Автор рипа: sanchez2011
    Качество: SATRip
    Формат: AVI
    Видео кодек: XviD
    Аудио кодек: MP3
    Видео: MPEG-4 Visual (H263) 720x464 (16:10) 25.00fps 1500kbps
    Аудио: MPEG Audio Layer 3 48000Hz stereo 128kbps

    Скриншоты + стартовый лист

    Стартовый лист

    Результаты + продолжительность

    Продолжительность: 01:04:07

    MediaInfo

    GeneralComplete name : D:\Torrent\XXVI Зимняя Универсиада. Биатлон\Женская индивидуалка 15 км. Универсиада.aviFormat : AVIFormat/Info : Audio Video InterleaveFile size : 746 MiBDuration : 1h 4mnOverall bit rate : 1 625 KbpsDirector : sanchez2011Writing application : VirtualDubMod 1.5.10.2 (build 2540/release)Writing library : VirtualDubMod build 2540/release
    VideoID : 0Format : MPEG-4 VisualFormat profile : Advanced Simple@L5Format settings, BVOP : 2Format settings, QPel : NoFormat settings, GMC : No warppointsFormat settings, Matrix : Default (H.263)Codec ID : XVIDCodec ID/Hint : XviDDuration : 1h 4mnBit rate : 1 488 KbpsWidth : 720 pixelsHeight : 464 pixelsDisplay aspect ratio : 16:10Frame rate : 25.000 fpsColor space : YUVChroma subsampling : 4:2:0Bit depth : 8 bitsScan type : ProgressiveCompression mode : LossyBits/(Pixel*Frame) : 0.178Stream size : 682 MiB (92%)Writing library : XviD 64
    AudioID : 1Format : MPEG AudioFormat version : Version 1Format profile : Layer 3Mode : Joint stereoMode extension : MS StereoCodec ID : 55Codec ID/Hint : MP3Duration : 1h 4mnBit rate mode : ConstantBit rate : 128 KbpsChannel(s) : 2 channelsSampling rate : 48.0 KHzCompression mode : LossyStream size : 58.7 MiB (8%)Alignment : Aligned on interleavesInterleave, duration : 40 ms (1.00 video frame)Interleave, preload duration : 504 msWriting library : LAME3.98rEncoding settings : -m j -V 4 -q 3 -lowpass 17 -b 128
    Скачать .torrent

    Скачать торрент-файл бесплатно и на максимальной скорости!

    Как скачивать? · Что такое торрент? · Рейтинг и ограничения

    !ВНИМАНИЕ!
    Сайт не распространяет и не хранит электронные версии произведений, а занимается лишь лишь предоставлением доступа к создаваемому пользователями каталогу ссылок на торрент-файлы, которые содержат только списки хеш-сумм, убедительная просьба с жалобами обращаться напрямую к пользователю. Файлы для обмена на трекере предоставлены пользователями сайта, и администрация не несёт ответственности за их содержание. Просьба не заливать файлы, защищенные авторскими правами, а также файлы нелегального содержания!

    [Профиль] [ЛС]
    Показать сообщения:    
    Ответить на тему

    Текущее время: Сегодня, в 19:36

    Часовой пояс: GMT + 2



    Вы не можете начинать темы
    Вы не можете отвечать на сообщения
    Вы не можете редактировать свои сообщения
    Вы не можете удалять свои сообщения
    Вы не можете голосовать в опросах
    Вы не можете прикреплять файлы к сообщениям
    Вы не можете скачивать файлы