Register  ·  Log in
Forgot password?

  • XXVI Всемирная Зимняя Универсиада 2013. Трентино (Италия). Индивидуальная гонка 15 км. Женщины / Россия 2 [13.12.2013 г., Биатлон, SATRip, XviD]

    Reply to topic
    Author Message


    Post 14-Dec-2013 11:38



    XXVI Всемирная Зимняя Универсиада 2013. Трентино (Италия). Индивидуальная гонка 15 км. Женщины
    Вид спорта: Биатлон
    Комментарий: Профессиональный
    Язык комментариев: Русский (Алексей Осин)
    Описание: Женская индивидуальная гонка 15 км на XXVI Всемирной Зимней Универсиаде в итальянском Трентино.-Автор рипа: sanchez2011
    Качество: SATRip
    Формат: AVI
    Видео кодек: XviD
    Аудио кодек: MP3
    Видео: MPEG-4 Visual (H263) 720x464 (16:10) 25.00fps 1500kbps
    Аудио: MPEG Audio Layer 3 48000Hz stereo 128kbps

    Скриншоты + стартовый лист

    Стартовый лист

    Результаты + продолжительность

    Продолжительность: 01:04:07


    GeneralComplete name : D:\Torrent\XXVI Зимняя Универсиада. Биатлон\Женская индивидуалка 15 км. Универсиада.aviFormat : AVIFormat/Info : Audio Video InterleaveFile size : 746 MiBDuration : 1h 4mnOverall bit rate : 1 625 KbpsDirector : sanchez2011Writing application : VirtualDubMod (build 2540/release)Writing library : VirtualDubMod build 2540/release
    VideoID : 0Format : MPEG-4 VisualFormat profile : Advanced Simple@L5Format settings, BVOP : 2Format settings, QPel : NoFormat settings, GMC : No warppointsFormat settings, Matrix : Default (H.263)Codec ID : XVIDCodec ID/Hint : XviDDuration : 1h 4mnBit rate : 1 488 KbpsWidth : 720 pixelsHeight : 464 pixelsDisplay aspect ratio : 16:10Frame rate : 25.000 fpsColor space : YUVChroma subsampling : 4:2:0Bit depth : 8 bitsScan type : ProgressiveCompression mode : LossyBits/(Pixel*Frame) : 0.178Stream size : 682 MiB (92%)Writing library : XviD 64
    AudioID : 1Format : MPEG AudioFormat version : Version 1Format profile : Layer 3Mode : Joint stereoMode extension : MS StereoCodec ID : 55Codec ID/Hint : MP3Duration : 1h 4mnBit rate mode : ConstantBit rate : 128 KbpsChannel(s) : 2 channelsSampling rate : 48.0 KHzCompression mode : LossyStream size : 58.7 MiB (8%)Alignment : Aligned on interleavesInterleave, duration : 40 ms (1.00 video frame)Interleave, preload duration : 504 msWriting library : LAME3.98rEncoding settings : -m j -V 4 -q 3 -lowpass 17 -b 128
    Download .torrent

    Download free and at maximum speed!

    How to Download? · What is a torrent? · Ratings and Limitations

    The site does not extend and does not store electronic(digital) versions of products, and only gives access to a reference catalogue created by users on torrent-files which contain only lists of the hash-sums, the earnest entreaty, with complaints(abuse) to access directly to the user. Files for an exchange on tracker are given by users of a site, and the administration does not bear the responsibility for their maintenance. The request to not fill in the files protected by copyrights, and also files of the illegal maintenance!

    [Profile] [PM]
    Display posts from previous:    
    Reply to topic

    The time now is: Today 00:22

    All times are GMT + 3 Hours

    You cannot post new topics in this forum
    You cannot reply to topics in this forum
    You cannot edit your posts in this forum
    You cannot delete your posts in this forum
    You cannot vote in polls in this forum
    You cannot attach files in this forum
    You cannot download files in this forum