BitTorrentTracker PerecTracker.org
BitTorrentTracker PerecTracker.org
    
Регистрация  ·  Вход
 
 · 
Забыли пароль?

  • XXVI Всемирная Зимняя Универсиада 2013. Трентино (Италия). Индивидуальная гонка 20 км. Мужчины / Россия 2 [13.12.2013 г., Биатлон, DVB, MPEG]

    Ответить на тему
     
    Автор Сообщение

    Columb

    Создавать темы 14-Дек-2013 10:36

           

    [Цитировать]

    XXVI Всемирная Зимняя Универсиада 2013. Трентино (Италия). Индивидуальная гонка 20 км. Мужчины
    Вид спорта: Биатлон
    Комментарий: Профессиональный
    Язык комментариев: Русский (Алексей Осин)
    Описание: Мужская индивидуальная гонка 20 км на XXVI Всемирной Зимней Универсиаде в итальянском Трентино.-Автор рипа: sanchez2011
    Качество: DVB
    Формат: MPEG-PS
    Видео кодек: MPEG2
    Аудио кодек: MP2
    Видео: MPEG2 Video 720x576 (4:3) 25.00fps 2002kbps
    Аудио: MPEG Audio Layer 2 48000Hz stereo 192kbps

    Скриншоты + стартовый лист

    Стартовый лист

    Результаты + продолжительность

    Продолжительность: 01:26:24

    MediaInfo

    GeneralComplete name : D:\Torrent\XXVI Зимняя Универсиада. Биатлон\Муж. Индивидуал. 20 км. Универсиада.mpgFormat : MPEG-PSFile size : 1.35 GiBDuration : 1h 26mnOverall bit rate mode : VariableOverall bit rate : 2 238 Kbps
    VideoID : 224 (0xE0)Format : MPEG VideoFormat version : Version 2Format profile : Main@MainFormat settings, BVOP : YesFormat settings, Matrix : CustomFormat settings, GOP : VariableDuration : 1h 26mnBit rate mode : VariableBit rate : 2 002 KbpsMaximum bit rate : 15.0 MbpsWidth : 720 pixelsHeight : 576 pixelsDisplay aspect ratio : 4:3Frame rate : 25.000 fpsStandard : PALColor space : YUVChroma subsampling : 4:2:0Bit depth : 8 bitsScan type : InterlacedScan order : Top Field FirstCompression mode : LossyBits/(Pixel*Frame) : 0.193Time code of first frame : 00:00:00:00Time code source : Group of pictures headerStream size : 1.21 GiB (89%)Matrix coefficients : BT.601
    AudioID : 192 (0xC0)Format : MPEG AudioFormat version : Version 1Format profile : Layer 2Duration : 1h 26mnBit rate mode : ConstantBit rate : 192 KbpsChannel(s) : 2 channelsSampling rate : 48.0 KHzCompression mode : LossyStream size : 119 MiB (9%)
    Скачать .torrent

    Скачать торрент-файл бесплатно и на максимальной скорости!

    Как скачивать? · Что такое торрент? · Рейтинг и ограничения

    !ВНИМАНИЕ!
    Сайт не распространяет и не хранит электронные версии произведений, а занимается лишь лишь предоставлением доступа к создаваемому пользователями каталогу ссылок на торрент-файлы, которые содержат только списки хеш-сумм, убедительная просьба с жалобами обращаться напрямую к пользователю. Файлы для обмена на трекере предоставлены пользователями сайта, и администрация не несёт ответственности за их содержание. Просьба не заливать файлы, защищенные авторскими правами, а также файлы нелегального содержания!

    [Профиль] [ЛС]
    Показать сообщения:    
    Ответить на тему

    Текущее время: Сегодня, в 04:29

    Часовой пояс: GMT + 2



    Вы не можете начинать темы
    Вы не можете отвечать на сообщения
    Вы не можете редактировать свои сообщения
    Вы не можете удалять свои сообщения
    Вы не можете голосовать в опросах
    Вы не можете прикреплять файлы к сообщениям
    Вы не можете скачивать файлы