BitTorrentTracker PerecTracker.org
BitTorrentTracker PerecTracker.org
    
Регистрация  ·  Вход
 
 · 
Забыли пароль?

  • Галапагосские острова / Faszination Galapagos (Бенжамин Ичер / Benjamin Eicher, Тимо Дж. Мэйер / Timo Joh. Mayer) [2012, документальный, BDRip 720p]

    Ответить на тему
     
    Автор Сообщение

    Columb

    Создавать темы 14-Дек-2013 10:23

           

    [Цитировать]

    Галапагосские острова / Faszination Galapagos
    -Год выпуска: 2012
    Страна: Германия
    Жанр: Документальный
    Продолжительность: 00:54:23
    Перевод: Профессиональный одноголосый
    Режиссер: Бенжамин Ичер / Benjamin Eicher, Тимо Дж. Мэйер / Timo Joh. Mayer
    Русские субтитры: есть-Описание: Machen Sie sich bereit für eine atemberaubende Reise nach Südamerika und erleben Sie das letzte Paradies unserer Erde, die Galapagos Inseln, so hautnah wie niemals zuvor. Eindrucksvolle Aufnahmen führen Sie in eine faszinierende Welt, die nun auf High-Definition Blu-ray Disc auch in ihrem Heimkino erstrahlen wird.
    Посетите с нами этот маленький, неповторимый архипелаг в Тихом океане, 1000 км перед восточным берегом Южной Америки. Он выглядит захватывающе таинственно и даже иногда нереально, так как кажется, что из-за вулканического происхождения жизнь на нем невозможна. Все же при ближайшем рассмотрении архипелаг изобилует жизнью. Примерно 40 % самых различных видов животных обитают только здесь и поэтому находятся под защитой.-Тип релиза: BDRip 720p
    Контейнер: MKV
    Видео: 1280x720 at 23.976 fps, x264@L4.1, 8287 kbps
    Аудио: Russian: 48 kHz/24-bit, DTS, 3/2 (L,C,R,l,r) + LFE ch, ~1509 kbps
    Аудио 2: English: 48 kHz/24-bit, DTS, 3/2 (L,C,R,l,r) + LFE ch, ~1509 kbps
    Субтитры: Russian
    Сэмпл-

    Скриншоты

    MediaInfo

    Общее
    Уникальный идентификатор : 180989410757340553346725985778026937133 (0x88294AE67CBC7ED3AA137D367C0FFB2D)
    Полное имя : D:\Фильмы\Faszination.Galapagos.2012.720p.BluRay.Rus.Eng.HDCLUB.mkv
    Формат : Matroska
    Версия формата : Version 4 / Version 2
    Размер файла : 4,38 Гбайт
    Продолжительность : 54 м.
    Общий поток : 11,5 Мбит/сек
    Дата кодирования : UTC 2013-08-15 14:06:09
    Программа кодирования : mkvmerge v6.3.0 ('You can't stop me!') built on Jun 28 2013 20:09:41
    Библиотека кодирования : libebml v1.3.0 + libmatroska v1.4.0
    Видео
    Идентификатор : 1
    Формат : AVC
    Формат/Информация : Advanced Video Codec
    Профиль формата : High@L4.1
    Параметр CABAC формата : Да
    Параметр ReFrames формата : 8 кадров
    Идентификатор кодека : V_MPEG4/ISO/AVC
    Продолжительность : 54 м.
    Битрейт : 8287 Кбит/сек
    Ширина : 1280 пикселей
    Высота : 720 пикселей
    Соотношение сторон : 16:9
    Режим частоты кадров : Постоянный
    Частота кадров : 23,976 кадра/сек
    Цветовое пространство : YUV
    Субдискретизация насыщенности : 4:2:0
    Битовая глубина : 8 бит
    Тип развёртки : Прогрессивная
    Бит/(Пиксели*Кадры) : 0.375
    Размер потока : 3,15 Гбайт (72%)
    Заголовок : Уникальные Галапагосские острова: Южная Америка / Faszination Galapagos (2012) - realise for HDCLUB
    Библиотека кодирования : x264 core 133 r2334 a3ac64b
    Настройки программы : cabac=1 / ref=8 / deblock=1:-3:-3 / analyse=0x3:0x113 / me=umh / subme=10 / psy=1 / psy_rd=1.00:0.00 / mixed_ref=1 / me_range=48 / chroma_me=1 / trellis=2 / 8x8dct=1 / cqm=0 / deadzone=21,11 / fast_pskip=1 / chroma_qp_offset=-2 / threads=6 / lookahead_threads=1 / sliced_threads=0 / nr=0 / decimate=1 / interlaced=0 / bluray_compat=0 / constrained_intra=0 / bframes=3 / b_pyramid=2 / b_adapt=2 / b_bias=0 / direct=1 / weightb=1 / open_gop=0 / weightp=2 / keyint=240 / keyint_min=23 / scenecut=40 / intra_refresh=0 / rc_lookahead=65 / rc=crf / mbtree=0 / crf=17.0 / qcomp=0.60 / qpmin=0 / qpmax=69 / qpstep=4 / vbv_maxrate=50000 / vbv_bufsize=62500 / crf_max=0.0 / nal_hrd=none / ip_ratio=1.40 / pb_ratio=1.30 / aq=1:0.80
    Язык : English
    Default : Да
    Forced : Нет
    Коэффициенты матрицы : BT.709
    Аудио #1
    Идентификатор : 2
    Формат : DTS
    Формат/Информация : Digital Theater Systems
    Режим : 16
    Параметр Endianness формата : Big
    Идентификатор кодека : A_DTS
    Продолжительность : 54 м.
    Вид битрейта : Постоянный
    Битрейт : 1509 Кбит/сек
    Каналы : 6 каналов
    Расположение каналов : Front: L C R, Side: L R, LFE
    Частота : 48,0 КГц
    Битовая глубина : 24 бит
    Метод сжатия : С потерями
    Размер потока : 587 Мбайт (13%)
    Заголовок : DTS 5.1 1509 kbps - Профессиональный oдноголосый
    Язык : Russian
    Default : Да
    Forced : Нет
    Аудио #2
    Идентификатор : 3
    Формат : DTS
    Формат/Информация : Digital Theater Systems
    Режим : 16
    Параметр Endianness формата : Big
    Идентификатор кодека : A_DTS
    Продолжительность : 54 м.
    Вид битрейта : Постоянный
    Битрейт : 1509 Кбит/сек
    Каналы : 6 каналов
    Расположение каналов : Front: L C R, Side: L R, LFE
    Частота : 48,0 КГц
    Битовая глубина : 24 бит
    Метод сжатия : С потерями
    Размер потока : 587 Мбайт (13%)
    Заголовок : DTS 5.1 1509 kbps - English
    Язык : English
    Default : Нет
    Forced : Нет
    Текст
    Идентификатор : 4
    Формат : UTF-8
    Идентификатор кодека : S_TEXT/UTF8
    Идентификатор кодека/Информация : UTF-8 Plain Text
    Заголовок : Subtitles/Captions
    Язык : Russian
    Default : Да
    Forced : Нет
    Меню
    00:00:00.000 : en:
    00:07:03.047 : en:
    00:14:32.580 : en:
    00:20:36.610 : en:
    00:28:30.417 : en:
    00:35:04.393 : en:
    00:42:30.547 : en:
    00:49:11.865 : en:
    00:54:23.843 : en:

    Дополнительно

    Сохранены оригинальные чаптеры как на Blu-ray.
    Скачать .torrent

    Скачать торрент-файл бесплатно и на максимальной скорости!

    Как скачивать? · Что такое торрент? · Рейтинг и ограничения

    !ВНИМАНИЕ!
    Сайт не распространяет и не хранит электронные версии произведений, а занимается лишь лишь предоставлением доступа к создаваемому пользователями каталогу ссылок на торрент-файлы, которые содержат только списки хеш-сумм, убедительная просьба с жалобами обращаться напрямую к пользователю. Файлы для обмена на трекере предоставлены пользователями сайта, и администрация не несёт ответственности за их содержание. Просьба не заливать файлы, защищенные авторскими правами, а также файлы нелегального содержания!

    [Профиль] [ЛС]
    Показать сообщения:    
    Ответить на тему

    Текущее время: Сегодня, в 07:59

    Часовой пояс: GMT + 2



    Вы не можете начинать темы
    Вы не можете отвечать на сообщения
    Вы не можете редактировать свои сообщения
    Вы не можете удалять свои сообщения
    Вы не можете голосовать в опросах
    Вы не можете прикреплять файлы к сообщениям
    Вы не можете скачивать файлы