BitTorrentTracker PerecTracker.org
BitTorrentTracker PerecTracker.org
    
Регистрация  ·  Вход
 
 · 
Забыли пароль?

  • Тёрнер и Хуч / Turner & Hooch (Роджер Споттисвуд / Roger Spottiswoode) [1989, США, триллер, драма, комедия, криминал, BDRip] 2xMVO (СТС, ОРТ) + AVO (Дохалов, Живов)

    Ответить на тему
     
    Автор Сообщение

    Columb

    Создавать темы 13-Дек-2013 17:04

           

    [Цитировать]

    Тёрнер и Хуч / Turner & Hooch-Год выпуска: 1989
    Выпущено: США
    Жанр: триллер, драма, комедия, криминал
    Продолжительность: 01:39:41
    Перевод: Профессиональный (многоголосый, закадровый) СТС
    + Профессиональный (многоголосый, закадровый) ОРТ (отдельно)
    + Авторский одноголосый Ю.Живов (отдельно)
    + Авторский одноголосый В.Дохалов (отдельно)
    Субтитры: нет-Режиссер: Роджер Споттисвуд
    В ролях: Том Хэнкс, Мэр Уиннингхэм, Крэйг Т. Нельсон, Реджинальд ВелДжонсон, Скотт Полин, Дж. К. Куин, Джон МакИнтайр, Дэвид Нелл, Эбби Роу Смит, Кевин Сканнелл
    О фильме: Профессиональный сыщик Скотт Тернер ненавидит беспорядок. В его жизни все заранее спланировано и предсказуемо. Хуч — самый неспокойный, самый невоспитанный и абсолютно неподдающийся дрессировке пес.
    Не повезет тому несчастному хозяину, к которому он попадет. Тернер слишком поздно понял, кого впустил в свой дом. Но шумные ссоры ни к чему не привели. Возможно, лучший способ одолеть своего врага, это подружиться с ним.-Релиз:
    Автор: sociolog_melvas
    Качество: BDRip (источник: / BD-Remux / 1080p)
    Формат: AVI
    Видео: 704x384 (1.83:1), 23.976 fps, XviD build 65 ~1886 kbps avg, 0.29 bit/pixel
    Аудио #1: 48 kHz, AC3 Dolby Digital, 2/0 (L,R), ~192.00 kbps avg
    Аудио #2: 48 kHz, AC3 Dolby Digital, 2/0 (L,R), ~192.00 kbps avg орт (отдельно)
    Аудио #3: 48 kHz, AC3 Dolby Digital, 2/0 (L,R), ~192.00 kbps avg Дохалов (отдельно)
    Аудио #4: 48 kHz, AC3 Dolby Digital, 2/0 (L,R), ~192.00 kbps avg Живов (отдельно)
    Размер: 1486.43 Mb (1/3 DVD-R)-

    Кадры из фильма

    -

    Mi


    Формат : AVI
    Формат/Информация : Audio Video Interleave
    Размер файла : 1,45 Гбайт
    Продолжительность : 1 ч. 39 м.
    Общий поток : 2088 Кбит/сек
    Название фильма : Тёрнер и Хуч / Turner & Hooch (1989) BDRip
    Режиссёр : sociolog_melvas
    Жанр : триллер, драма, комедия
    Программа кодирования : VirtualDubMod 1.5.10.2 (build 2540/release)
    Примечание : 12.12.2013
    Видео
    Идентификатор : 0
    Формат : MPEG-4 Visual
    Профиль формата : Advanced Simple@L5
    Параметр BVOP формата : 1
    Параметр QPel формата : Нет
    Параметр GMC формата : Без точки перехода
    Параметр матрицы формата : Выборочная
    Идентификатор кодека : XVID
    Идентификатор кодека/Подсказка : XviD
    Продолжительность : 1 ч. 39 м.
    Битрейт : 1886 Кбит/сек
    Ширина : 704 пикселя
    Высота : 384 пикселя
    Соотношение сторон : 1,85:1
    Частота кадров : 23,976 кадра/сек
    Цветовое пространство : YUV
    Субдискретизация насыщенности : 4:2:0
    Битовая глубина : 8 бит
    Тип развёртки : Прогрессивная
    Метод сжатия : С потерями
    Бит/(Пиксели*Кадры) : 0.291
    Размер потока : 1,31 Гбайт (90%)
    Библиотека кодирования : XviD 65
    Аудио
    Идентификатор : 1
    Формат : AC-3
    Формат/Информация : Audio Coding 3
    Расширение режима : CM (complete main)
    Параметр Endianness формата : Big
    Идентификатор кодека : 2000
    Продолжительность : 1 ч. 39 м.
    Вид битрейта : Постоянный
    Битрейт : 192 Кбит/сек
    Каналы : 2 канала
    Расположение каналов : Front: L R
    Частота : 48,0 КГц
    Битовая глубина : 16 бит
    Метод сжатия : С потерями
    Размер потока : 137 Мбайт (9%)
    Выравнивание : Разделение по промежуткам
    Продолжительность промежутка : 42 мс. (1,00 видеокадр)
    Время предзагрузки промежутка : 500 мс.
    -
    Скачать .torrent

    Скачать торрент-файл бесплатно и на максимальной скорости!

    Как скачивать? · Что такое торрент? · Рейтинг и ограничения

    !ВНИМАНИЕ!
    Сайт не распространяет и не хранит электронные версии произведений, а занимается лишь лишь предоставлением доступа к создаваемому пользователями каталогу ссылок на торрент-файлы, которые содержат только списки хеш-сумм, убедительная просьба с жалобами обращаться напрямую к пользователю. Файлы для обмена на трекере предоставлены пользователями сайта, и администрация не несёт ответственности за их содержание. Просьба не заливать файлы, защищенные авторскими правами, а также файлы нелегального содержания!

    [Профиль] [ЛС]
    Показать сообщения:    
    Ответить на тему

    Текущее время: Сегодня, в 08:12

    Часовой пояс: GMT + 2



    Вы не можете начинать темы
    Вы не можете отвечать на сообщения
    Вы не можете редактировать свои сообщения
    Вы не можете удалять свои сообщения
    Вы не можете голосовать в опросах
    Вы не можете прикреплять файлы к сообщениям
    Вы не можете скачивать файлы