BitTorrentTracker PerecTracker.org
BitTorrentTracker PerecTracker.org
    
Регистрация  ·  Вход
 
 · 
Забыли пароль?

  • Афоня (Георгий Данелия) [1975, Драма, мелодрама, комедия, BDRip-AVC]

    Ответить на тему
     
    Автор Сообщение

    Columb

    Создавать темы 11-Дек-2013 21:24

           

    [Цитировать]

    АфоняЖанр: Драма, мелодрама, комедия
    Год выпуска: 1975
    Продолжительность: 01:31:57
    Навигация по главам: есть
    Режиссёр: Георгий Данелия
    В ролях: Леонид Куравлёв, Евгения Симонова, Евгений Леонов, Борислав Брондуков, Валентина Талызина, Владимир Басов, Николай Парфёнов, Готлиб Ронинсон, Нина Русланова, Раиса Куркина, Нина Маслова, Алексей Ванин, Савелий Крамаров, Николай Гринько, Николай Граббе, Тамара Совчи, Раднэр Муратов, Татьяна Распутина
    Описание: Весело и беззаботно жил слесарь-сантехник Афанасий. Не гнушался левыми заработками, любил выпить, поволочиться за девушками. Так проходил день за днём, но однажды...О том, что случилось с Афоней, рассказывает фильм признанного мастера комедии Георгия Данелии.
    Качество видео: BDRip-AVC
    Формат видео: MKV

    Автор: nnlabetik

    Семпл
    Видео: 794x576 (1.37:1), 23,976 fps, MPEG-4 AVC, 2945 kbps avg, 0.269 bit/pixel
    Аудио: 48 kHz, AC3 Dolby Digital, 3/2 (L,C,R,l,r) + LFE ch, ~448.00 kbps avg

    MediaInfo | x264

    x264

    Crop(215, 0, -215, -0)
    x264 [info]: frame I:755 Avg QP:15.65 size: 65387
    x264 [info]: frame P:26892 Avg QP:17.10 size: 32554
    x264 [info]: frame B:104634 Avg QP:18.58 size: 10278
    x264 [info]: consecutive B-frames: 1.1% 1.7% 6.3% 17.1% 17.5% 48.1% 5.2% 0.7% 0.8% 0.2% 0.1% 1.2%
    x264 [info]: mb I I16..4: 18.9% 0.0% 81.1%
    x264 [info]: mb P I16..4: 29.0% 0.0% 0.0% P16..4: 68.1% 0.0% 0.0% 0.0% 0.0% skip: 2.9%
    x264 [info]: mb B I16..4: 5.9% 0.0% 0.0% B16..8: 33.5% 0.0% 0.0% direct:29.9% skip:30.8% L0:22.5% L1:31.8% BI:45.6%
    x264 [info]: final ratefactor: 16.91
    x264 [info]: direct mvs spatial:99.3% temporal:0.7%
    x264 [info]: coded y,uvDC,uvAC intra: 87.2% 62.0% 34.7% inter: 35.8% 22.2% 1.2%
    x264 [info]: i16 v,h,dc,p: 26% 12% 47% 15%
    x264 [info]: i4 v,h,dc,ddl,ddr,vr,hd,vl,hu: 21% 16% 14% 8% 8% 8% 8% 8% 8%
    x264 [info]: i8c dc,h,v,p: 54% 18% 24% 4%
    x264 [info]: Weighted P-Frames: Y:12.3% UV:5.4%
    x264 [info]: kb/s:2900.36
    Общее
    Уникальный идентификатор : 224380500553765129857918949046931970356 (0xA8CE1CCC7E1A67D0AC935772E6745934)
    Полное имя : F:\Афоня_1975\Afonya_1975.x264(AVC).mkv
    Формат : Matroska
    Версия формата : Version 4 / Version 2
    Размер файла : 2,18 Гбайт
    Продолжительность : 1 ч. 31 м.
    Общий поток : 3395 Кбит/сек
    Название фильма : Афоня / 1975 -=NN@LIFE=-
    Дата кодирования : UTC 2013-12-11 05:14:05
    Программа кодирования : mkvmerge v6.6.0 ('The Edge Of The In Between') built on Dec 1 2013 17:55:00
    Библиотека кодирования : libebml v1.3.0 + libmatroska v1.4.1
    Видео
    Идентификатор : 1
    Формат : AVC
    Формат/Информация : Advanced Video Codec
    Профиль формата : High@L4.1
    Параметр CABAC формата : Да
    Параметр ReFrames формата : 8 кадров
    Идентификатор кодека : V_MPEG4/ISO/AVC
    Продолжительность : 1 ч. 31 м.
    Битрейт : 2945 Кбит/сек
    Ширина : 794 пикселя
    Высота : 576 пикселей
    Соотношение сторон : 1,378
    Режим частоты кадров : Постоянный
    Частота кадров : 23,976 кадра/сек
    Цветовое пространство : YUV
    Субдискретизация насыщенности : 4:2:0
    Битовая глубина : 8 бит
    Тип развёртки : Прогрессивная
    Бит/(Пиксели*Кадры) : 0.269
    Размер потока : 1,85 Гбайт (85%)
    Заголовок : Rip by nnlabetik
    Библиотека кодирования : x264 core 138 r2358 9e941d1
    Настройки программы : cabac=1 / ref=8 / deblock=1:-2:-1 / analyse=0x3:0x113 / me=umh / subme=11 / psy=1 / psy_rd=0.90:0.10 / mixed_ref=1 / me_range=32 / chroma_me=1 / trellis=2 / 8x8dct=1 / cqm=0 / deadzone=21,11 / fast_pskip=1 / chroma_qp_offset=-3 / threads=6 / lookahead_threads=1 / sliced_threads=0 / nr=0 / decimate=1 / interlaced=0 / bluray_compat=0 / constrained_intra=0 / bframes=11 / b_pyramid=2 / b_adapt=2 / b_bias=0 / direct=3 / weightb=1 / open_gop=0 / weightp=2 / keyint=240 / keyint_min=23 / scenecut=40 / intra_refresh=0 / rc_lookahead=50 / rc=2pass / mbtree=0 / bitrate=2945 / ratetol=1.0 / qcomp=0.60 / qpmin=0 / qpmax=69 / qpstep=4 / cplxblur=20.0 / qblur=0.5 / vbv_maxrate=50000 / vbv_bufsize=62500 / nal_hrd=none / ip_ratio=1.40 / pb_ratio=1.30 / aq=1:1.00
    Язык : Russian
    Default : Да
    Forced : Нет
    Аудио
    Идентификатор : 2
    Формат : AC-3
    Формат/Информация : Audio Coding 3
    Расширение режима : CM (complete main)
    Параметр Endianness формата : Big
    Идентификатор кодека : A_AC3
    Продолжительность : 1 ч. 31 м.
    Вид битрейта : Постоянный
    Битрейт : 448 Кбит/сек
    Каналы : 6 каналов
    Расположение каналов : Front: L C R, Side: L R, LFE
    Частота : 48,0 КГц
    Битовая глубина : 16 бит
    Метод сжатия : С потерями
    Размер потока : 295 Мбайт (13%)
    Язык : Russian
    Default : Да
    Forced : Нет
    Меню
    00:00:00.000 : :Chapter 01
    00:07:11.431 : :Chapter 02
    00:11:12.672 : :Chapter 03
    00:19:32.171 : :Chapter 04
    00:24:03.066 : :Chapter 05
    00:31:43.902 : :Chapter 06
    00:42:34.552 : :Chapter 07
    00:51:58.615 : :Chapter 08
    01:00:26.622 : :Chapter 09
    01:09:38.174 : :Chapter 10
    01:15:31.610 : :Chapter 11
    01:23:30.130 : :Chapter 12
    01:31:56.511 : :Chapter 13

    Скриншоты

    Скачать .torrent

    Скачать торрент-файл бесплатно и на максимальной скорости!

    Как скачивать? · Что такое торрент? · Рейтинг и ограничения

    !ВНИМАНИЕ!
    Сайт не распространяет и не хранит электронные версии произведений, а занимается лишь лишь предоставлением доступа к создаваемому пользователями каталогу ссылок на торрент-файлы, которые содержат только списки хеш-сумм, убедительная просьба с жалобами обращаться напрямую к пользователю. Файлы для обмена на трекере предоставлены пользователями сайта, и администрация не несёт ответственности за их содержание. Просьба не заливать файлы, защищенные авторскими правами, а также файлы нелегального содержания!

    [Профиль] [ЛС]
    Показать сообщения:    
    Ответить на тему

    Текущее время: Сегодня, в 20:02

    Часовой пояс: GMT + 2



    Вы не можете начинать темы
    Вы не можете отвечать на сообщения
    Вы не можете редактировать свои сообщения
    Вы не можете удалять свои сообщения
    Вы не можете голосовать в опросах
    Вы не можете прикреплять файлы к сообщениям
    Вы не можете скачивать файлы