BitTorrentTracker PerecTracker.org
BitTorrentTracker PerecTracker.org
    
Регистрация  ·  Вход
 
 · 
Забыли пароль?

  • Открытая могила / Open Grave (Гонсало Лопес-Гальего / Gonzalo López-Gallego) [2013, США, Ужасы, триллер, HDRip] VO + Original Eng

    Ответить на тему
     
    Автор Сообщение

    Columb

    Создавать темы 11-Дек-2013 21:20

           

    [Цитировать]

    Открытая могила / Open Grave
    Страна: США
    Жанр: Ужасы, триллер
    Год выпуска: 2013
    Продолжительность: 01:42:12
    Перевод: одноголосый закадровый - RG Xixidok
    Cубтитры: нет
    Оригинальная аудиодорожка: английский
    Режиссер: Гонсало Лопес-Гальего / Gonzalo López-Gallego
    В ролях: Шарлто Копли, Джозеф Морган, Томас Кречман, Эрин Ричардс, Джози Хо, Макс Роттсли, Кати Домби, Ева Ботос, Марта Сабо, М. Фрайкс
    Описание: История человека, который однажды обнаруживает себя в яме в окружении трупов. При этом он ничего не помнит, не знает, кто он, откуда и как сюда попал. С помощью товарищей по несчастью, тоже потерявших память, он должен выяснить, что произошло
    Сэмпл: http://multi-up.com/931416
    Качество видео: HDRip
    Формат видео: AVI
    Видео: 720x304 (2.37:1, 24 fps, XviD build 50, 1520 kbps avg, 0.29 bit/pixel
    Аудио: 44.100 kHz, MPEG Layer 3, 2 ch, 192.00 kbps avg (Русский)
    Аудио 2: 48 kHz, AC3 Dolby Digital, 2/0 (L,R) ch, 192 kbps (Английский)

    MediaInfo

    Оtkritaya.mogila.avi
    Format : AVI
    Format/Info : Audio Video Interleave
    File size : 1.37 GiB
    Duration : 1h 42mn
    Overall bit rate : 1 920 Kbps
    Writing application : VirtualDubMod 1.5.10.2 (build 2540/release)
    Writing library : VirtualDubMod build 2540/release
    Video #0
    ID : 0
    Format : MPEG-4 Visual
    Format profile : Advanced Simple@L5
    Format settings, BVOP : 2
    Format settings, QPel : No
    Format settings, GMC : No warppoints
    Format settings, Matrix : Default (H.263)
    Codec ID : XVID
    Codec ID/Hint : XviD
    Duration : 1h 42mn
    Bit rate : 1 522 Kbps
    Width : 720 pixels
    Height : 304 pixels
    Display aspect ratio : 2.35:1
    Frame rate : 24.000 fps
    Color space : YUV
    Chroma subsampling : 4:2:0
    Bit depth : 8 bits
    Scan type : Progressive
    Compression mode : Lossy
    Bits/(Pixel*Frame) : 0.290
    Stream size : 1.09 GiB (79%)
    Writing library : XviD 1.2.1 (UTC 2008-12-04)
    Audio #1
    ID : 1
    Format : MPEG Audio
    Format version : Version 1
    Format profile : Layer 3
    Codec ID : 55
    Codec ID/Hint : MP3
    Duration : 1h 42mn
    Bit rate mode : Constant
    Bit rate : 192 Kbps
    Channel(s) : 2 channels
    Sampling rate : 44.1 KHz
    Compression mode : Lossy
    Stream size : 140 MiB (10%)
    Alignment : Split accross interleaves
    Interleave, duration : 42 ms (1.00 video frame)
    Interleave, preload duration : 500 ms
    Audio #2
    ID : 2
    Format : AC-3
    Format/Info : Audio Coding 3
    Mode extension : CM (complete main)
    Codec ID : 2000
    Duration : 1h 42mn
    Bit rate mode : Constant
    Bit rate : 192 Kbps
    Channel(s) : 2 channels
    Channel positions : Front: L R
    Sampling rate : 48.0 KHz
    Bit depth : 16 bits
    Compression mode : Lossy
    Stream size : 140 MiB (10%)
    Alignment : Split accross interleaves
    Interleave, duration : 42 ms (1.00 video frame)
    Interleave, preload duration : 500 ms

    Скриншот c названием фильма

    Скриншоты

    Скачать .torrent

    Скачать торрент-файл бесплатно и на максимальной скорости!

    Как скачивать? · Что такое торрент? · Рейтинг и ограничения

    !ВНИМАНИЕ!
    Сайт не распространяет и не хранит электронные версии произведений, а занимается лишь лишь предоставлением доступа к создаваемому пользователями каталогу ссылок на торрент-файлы, которые содержат только списки хеш-сумм, убедительная просьба с жалобами обращаться напрямую к пользователю. Файлы для обмена на трекере предоставлены пользователями сайта, и администрация не несёт ответственности за их содержание. Просьба не заливать файлы, защищенные авторскими правами, а также файлы нелегального содержания!

    [Профиль] [ЛС]

    -746

    Создавать темы 13-Дек-2013 21:32 (спустя 2 дня)

           

    Топик был перенесен из форума Горячие новинки 2013 в форум Зарубежные Фильмы (Новинки)

    -sasha2006 

    _________________
    Как бы ты высоко не летал, не забывай, с кем ты ползал..
     

    -746

    Создавать темы 12-Янв-2014 19:07 (спустя 1 месяц)

           

    Топик был перенесен из форума Зарубежные Фильмы (Новинки) в форум Фильмы 2011-2013

    -sasha2006 

    _________________
    Как бы ты высоко не летал, не забывай, с кем ты ползал..
     
    Показать сообщения:    
    Ответить на тему

    Текущее время: Сегодня, в 16:23

    Часовой пояс: GMT + 2



    Вы не можете начинать темы
    Вы не можете отвечать на сообщения
    Вы не можете редактировать свои сообщения
    Вы не можете удалять свои сообщения
    Вы не можете голосовать в опросах
    Вы не можете прикреплять файлы к сообщениям
    Вы не можете скачивать файлы