BitTorrentTracker PerecTracker.org
BitTorrentTracker PerecTracker.org
    
Регистрация  ·  Вход
 
 · 
Забыли пароль?

  • Великолепная семерка / The Magnificent Seven (Джон Стёрджес / John Sturges) [1960 г, Драма, Приключения, Вестерн, BDRip] Dub (CEE) + Mvo (SomeWax) + Mvo (DVD Магия) + Sub (Rus, Eng) + Original Eng

    Ответить на тему
     
    Автор Сообщение

    Columb

    Создавать темы 01-Дек-2013 09:51

           

    [Цитировать]

    Великолепная семерка / The Magnificent Seven-«The Magnificent One!»-Страна: США
    Жанр: Драма, Приключения, Вестерн
    Год выпуска: 1960
    Продолжительность: 02:08:06-Перевод: Профессиональный (дублированный) (CEE)
    Перевод: Профессиональный (многоголосый закадровый) SomeWax
    Перевод 2: Профессиональный (многоголосый закадровый) DVD Магия
    Cубтитры: русские (Отдельно)
    Оригинальная аудиодорожка: английский (Отдельно)-Режиссер: Джон Стёрджес / John Sturges-В ролях: Юл Бриннер /Yul Brynner/, Эли Уоллах /Eli Wallach/, Стив МакКуин /Steve McQueen/, Чарльз Бронсон /Charles Bronson/, Роберт Вон /Robert Vaughn/, Хорст Буххольц /Horst Buchholz/, Джеймс Коберн /James Coburn/, Брэд Декстер /Brad Dexter/, Росенда Монтерос /Rosenda Monteros/, Владимир Соколов /Vladimir Sokoloff/, Хорхе Мартинес де Ойос /Jorge Martínez de Hoyos/, Рико Аланис /Rico Alaniz/, Пепе Херн /Pepe Hern/, Нативидад Васио /Natividad Vacío/, Марио Наварро /Mario Navarro/, Дэнни Браво /Danny Bravo/-Описание: В маленькой деревушке крестьяне годами страдают от бесчинств местных бандитов. Их главарь Калвера держит в страхе всю округу, мучая ее жителей постоянными поборами и наказаниями. И однажды крестьяне решают нанять себе защитников — семерых вооруженных всадников во главе с бритоголовым Крисом.
    Великолепная семерка быстро наводит порядок, но Калвейре все же удается бежать. И тогда поимка злодея и его соратников становится делом чести великолепной семерки.-Доп. информация:

    Релиз: Автор рипа: MECHANICAL ENGINEER-Качество видео: BDRip (Blu-Ray)
    Формат видео: AVI
    Видео: 704x304 (2.32:1), 23.976 fps, XviD build 64 ~2047 kbps avg, 0.40 bit/pixel
    Аудио: 48 kHz, AC3 Dolby Digital, 3/2 (L,C,R,l,r) + LFE ch, ~384 kbps | Дубляж (CEE)
    Размер файлов: 2234.35 Mb (1/2 DVD5)
    Аудио 2: 48 kHz, AC3 Dolby Digital, 3/2 (L,C,R,l,r) + LFE ch, ~384 kbps | SomeWax | отдельно
    Аудио 3: 48 kHz, AC3 Dolby Digital, 3/2 (L,C,R,l,r) + LFE ch, ~384 kbps | DVD Магия | отдельно
    Аудио 4: 48 kHz, AC3 Dolby Digital, 3/2 (L,C,R,l,r) + LFE ch, ~384.00 kbps avg | Английский | отдельно
    Формат субтитров: softsub (SRT) : Русские, Английские (полные, SDH). | отдельно

    MediaInfo

    Format                           : AVI
    Format/Info                      : Audio Video Interleave
    Format profile                   : OpenDML
    File size                        : 2.18 GiB
    Duration                         : 2h 8mn
    Overall bit rate                 : 2 438 Kbps
    Movie name                       : Великолепная семерка / The Magnificent Seven (1960)
    Director                         : MECHANICAL ENGINEER (BD-Remux)
    Writing application              : VirtualDubMod 1.5.10.3 | www.virtualdub-fr.org || (build 2550/release)
    Copyright                        : HQ-ViDEO
    Comment                          : 15.12.2011
    Video
    ID                               : 0
    Format                           : MPEG-4 Visual
    Format profile                   : Advanced Simple@L5
    Format settings, BVOP            : Yes
    Format settings, QPel            : No
    Format settings, GMC             : No warppoints
    Format settings, Matrix          : Custom
    Codec ID                         : XVID
    Codec ID/Hint                    : XviD
    Duration                         : 2h 8mn
    Bit rate                         : 2 042 Kbps
    Width                            : 704 pixels
    Height                           : 304 pixels
    Display aspect ratio             : 2.35:1
    Frame rate                       : 23.976 fps
    Color space                      : YUV
    Chroma subsampling               : 4:2:0
    Bit depth                        : 8 bits
    Scan type                        : Progressive
    Bits/(Pixel*Frame)               : 0.398
    Stream size                      : 1.83 GiB (84%)
    Writing library                  : XviD 64
    Audio
    ID                               : 1
    Format                           : AC-3
    Format/Info                      : Audio Coding 3
    Mode extension                   : CM (complete main)
    Codec ID                         : 2000
    Duration                         : 2h 8mn
    Bit rate mode                    : Constant
    Bit rate                         : 384 Kbps
    Channel(s)                       : 6 channels
    Channel positions                : Front: L C R, Side: L R, LFE
    Sampling rate                    : 48.0 KHz
    Bit depth                        : 16 bits
    Stream size                      : 352 MiB (16%)
    Alignment                        : Split accross interleaves
    Interleave, duration             : 42 ms (1.00 video frame)
    Interleave, preload duration     : 500 ms

    Скриншот c названием фильма

    Скриншоты для оценки качества (превью - увеличение по клику):



    Дополнительные звуковые дорожки (переводы)

    Залито на mega.co.nz
    Русский дублированный (СССР)
    48 kHz, AC3, 2 ch, 192 kbps
    Русский профессиональный перевод (НТВ)
    48 kHz, AC3, 2 ch, 192 kbps
    Авторский профессиональный перевод А.Гаврилов
    48 kHz, AC3, 2 ch, 192 kbps
    Авторский профессиональный перевод А.Михалев
    48 kHz, AC3, 2 ch, 192 kbps
    Авторский профессиональный перевод М.Иванов (ранний) (1)
    48 kHz, AC3, 2 ch, 192 kbps
    Авторский профессиональный перевод М.Иванов (поздний) (2)
    48 kHz, AC3, 2 ch, 192 kbps
    Авторский профессиональный перевод В.Горчаков (ранний) (1)
    48 kHz, AC3, 2 ch, 192 kbps
    Авторский профессиональный перевод В.Горчаков (второй) (2)
    48 kHz, AC3, 2 ch, 192 kbps
    Авторский профессиональный перевод В.Горчаков (поздний) (3)
    48 kHz, AC3, 2 ch, 192 kbps
    Украинский профессиональный двухголосый перевод (1+1)
    48 kHz, AC3, 2 ch, 192 kbps
    ПРИЯТНОГО ПРОСМОТРА!
    Скачать .torrent

    Скачать торрент-файл бесплатно и на максимальной скорости!

    Как скачивать? · Что такое торрент? · Рейтинг и ограничения

    !ВНИМАНИЕ!
    Сайт не распространяет и не хранит электронные версии произведений, а занимается лишь лишь предоставлением доступа к создаваемому пользователями каталогу ссылок на торрент-файлы, которые содержат только списки хеш-сумм, убедительная просьба с жалобами обращаться напрямую к пользователю. Файлы для обмена на трекере предоставлены пользователями сайта, и администрация не несёт ответственности за их содержание. Просьба не заливать файлы, защищенные авторскими правами, а также файлы нелегального содержания!

    [Профиль] [ЛС]
    Показать сообщения:    
    Ответить на тему

    Текущее время: Сегодня, в 21:52

    Часовой пояс: GMT + 2



    Вы не можете начинать темы
    Вы не можете отвечать на сообщения
    Вы не можете редактировать свои сообщения
    Вы не можете удалять свои сообщения
    Вы не можете голосовать в опросах
    Вы не можете прикреплять файлы к сообщениям
    Вы не можете скачивать файлы