BitTorrentTracker PerecTracker.org
BitTorrentTracker PerecTracker.org
    
Регистрация  ·  Вход
 
 · 
Забыли пароль?

  • Возвращение великолепной семерки / Return of the Seven (Берт Кеннеди / Burt Kennedy) [1966 г, Вестерн, BDRip] Mvo (SomeWax) + Mvo (DVD Магия) + Avo (М.Иванов) + Sub (Rus, Eng) + Original Eng

    Ответить на тему
     
    Автор Сообщение

    Columb

    Создавать темы 01-Дек-2013 09:47

           

    [Цитировать]

    Возвращение великолепной семерки / Return of the Seven-«Between the law and the lawless - SEVEN again... MAGNIFICENT again!»-Страна: США, Испания
    Студия: Mirisch Production Company, The, C.B. Films S.A.
    Жанр: Вестерн
    Год выпуска: 1966
    Продолжительность: 01:35:49-Перевод: Профессиональный (многоголосый закадровый) SomeWax
    Перевод 2: Профессиональный (многоголосый закадровый) DVD Магия (Отдельно)
    Перевод 3: Авторский (одноголосый закадровый) М.Иванов (Отдельно)
    Cубтитры: русские (Отдельно)
    Оригинальная аудиодорожка: английский (Отдельно)-Режиссер: Берт Кеннеди / Burt Kennedy-В ролях: Юл Бриннер /Yul Brynner/, Роберт Фуллер /Robert Fuller/, Джулиан Матеос /Julián Mateos/, Уоррен Оутс /Warren Oates/, Клод Экинс /Claude Akins/, Элиза Монтес /Elisa Montés/, Фернандо Рей /Fernando Rey/, Эмилио Фернандес /Emilio Fernández/, Виржилиу Тейшейра /Virgilio Teixeira/, Родольфо Акоста /Rodolfo Acosta/, Джордан Кристофер /Jordan Christopher/, Карлос Касаравилла /Carlos Casaravilla/, Рикардо Паласиос /Ricardo Palacios/, Педро Бермудез /Pedro Bermúdez/, Франциско Антон /Francisco Antón/, Мосес Менендез /Moisés Menéndez/-Описание: Продолжение легендарной «Великолепной семёрки» Некий бандит угоняет всё мужское население деревни на строительство церкви в местечке, где погибли его сыновья и практически превращает крестьян в рабов. Мужественные ковбои набирают отчаянных ребят, что бы освободить несчастных.-Доп. информация:

    Релиз: Автор рипа: MECHANICAL ENGINEER-Качество видео: BDRip (Magnificent Seven Collection 1080p BD-Remux)
    Формат видео: AVI
    Видео: 720x304 (2.37:1), 23.976 fps, XviD build 64 ~1784 kbps avg, 0.34 bit/pixel
    Аудио: 48 kHz, AC3 Dolby Digital, 3/2 (L,C,R,l,r) + LFE ch, ~384 kbps | SomeWax
    Размер файлов: 1492.43 Mb (1/3 DVD5)
    Аудио 2: 48 kHz, AC3 Dolby Digital, 3/2 (L,C,R,l,r) + LFE ch, ~384 kbps | DVD Магия | отдельно
    Аудио 3: 48 kHz, AC3 Dolby Digital, 2 ch, ~192.00 kbps avg | М.Иванов | отдельно
    Аудио 4: 48 kHz, AC3 Dolby Digital, 3/2 (L,C,R,l,r) + LFE ch, ~384.00 kbps avg | Английский | отдельно
    Формат субтитров: softsub (SRT) : Русские, Английские (полные, SDH). | отдельно

    MediaInfo

    Format                           : AVI
    Format/Info                      : Audio Video Interleave
    File size                        : 1.46 GiB
    Duration                         : 1h 35mn
    Overall bit rate                 : 2 178 Kbps
    Movie name                       : Возвращение великолепной семерки / Return of the Seven (1966)
    Director                         : MECHANICAL ENGINEER (BD-Remux)
    Writing application              : VirtualDubMod 1.5.10.3 | www.virtualdub-fr.org || (build 2550/release)
    Copyright                        : HQ-ViDEO
    Comment                          : 17.12.2011
    Video
    ID                               : 0
    Format                           : MPEG-4 Visual
    Format profile                   : Advanced Simple@L5
    Format settings, BVOP            : Yes
    Format settings, QPel            : No
    Format settings, GMC             : No warppoints
    Format settings, Matrix          : Custom
    Codec ID                         : XVID
    Codec ID/Hint                    : XviD
    Duration                         : 1h 35mn
    Bit rate                         : 1 784 Kbps
    Width                            : 720 pixels
    Height                           : 304 pixels
    Display aspect ratio             : 2.35:1
    Frame rate                       : 23.976 fps
    Color space                      : YUV
    Chroma subsampling               : 4:2:0
    Bit depth                        : 8 bits
    Scan type                        : Progressive
    Bits/(Pixel*Frame)               : 0.340
    Stream size                      : 1.19 GiB (82%)
    Writing library                  : XviD 64
    Audio
    ID                               : 1
    Format                           : AC-3
    Format/Info                      : Audio Coding 3
    Mode extension                   : CM (complete main)
    Codec ID                         : 2000
    Duration                         : 1h 35mn
    Bit rate mode                    : Constant
    Bit rate                         : 384 Kbps
    Channel(s)                       : 6 channels
    Channel positions                : Front: L C R, Side: L R, LFE
    Sampling rate                    : 48.0 KHz
    Bit depth                        : 16 bits
    Stream size                      : 263 MiB (18%)
    Alignment                        : Split accross interleaves
    Interleave, duration             : 42 ms (1.00 video frame)
    Interleave, preload duration     : 500 ms

    Скриншот c названием фильма

    Скриншоты для оценки качества (превью - увеличение по клику):



    ПРИЯТНОГО ПРОСМОТРА!
    Скачать .torrent

    Скачать торрент-файл бесплатно и на максимальной скорости!

    Как скачивать? · Что такое торрент? · Рейтинг и ограничения

    !ВНИМАНИЕ!
    Сайт не распространяет и не хранит электронные версии произведений, а занимается лишь лишь предоставлением доступа к создаваемому пользователями каталогу ссылок на торрент-файлы, которые содержат только списки хеш-сумм, убедительная просьба с жалобами обращаться напрямую к пользователю. Файлы для обмена на трекере предоставлены пользователями сайта, и администрация не несёт ответственности за их содержание. Просьба не заливать файлы, защищенные авторскими правами, а также файлы нелегального содержания!

    [Профиль] [ЛС]
    Показать сообщения:    
    Ответить на тему

    Текущее время: Сегодня, в 10:02

    Часовой пояс: GMT + 2



    Вы не можете начинать темы
    Вы не можете отвечать на сообщения
    Вы не можете редактировать свои сообщения
    Вы не можете удалять свои сообщения
    Вы не можете голосовать в опросах
    Вы не можете прикреплять файлы к сообщениям
    Вы не можете скачивать файлы