BitTorrentTracker PerecTracker.org
BitTorrentTracker PerecTracker.org
    
Регистрация  ·  Вход
 
 · 
Забыли пароль?

  • Ружья великолепной семерки / Guns of the Magnificent Seven (Пол Уэндкос / Paul Wendkos) [1969, боевик, драма, приключения, вестерн, BDRip] Mvo (SomeWax) + Mvo (DVD Магия) + Sub (Rus, Eng) + Original Eng

    Ответить на тему
     
    Автор Сообщение

    Columb

    Создавать темы 01-Дек-2013 09:40

           

    [Цитировать]

    Ружья великолепной семерки / Guns of the Magnificent Seven-«The Magnificent Seven are back - and they don't aim to please»-Страна: США
    Жанр: Боевик, Драма, Приключения, Вестерн
    Год выпуска: 1969
    Продолжительность: 01:46:00-Перевод: Профессиональный (многоголосый закадровый) SomeWax
    Перевод 2: Профессиональный (многоголосый закадровый) DVD Магия (Отдельно)
    Cубтитры: русские (Отдельно)
    Оригинальная аудиодорожка: английский-Режиссер: Пол Уэндкос / Paul Wendkos-В ролях: Джордж Кеннеди /George Kennedy/, Джеймс Уитмор /James Whitmore/, Монте Маркэм /Monte Markham/, Рени Сантони /Reni Santoni/, Берни Кейси /Bernie Casey/, Скотт Томас /Scott Thomas/, Джо Дон Бейкер /Joe Don Baker/, Тони Дэвис /Tony Davis/, Майкл Ансара /Michael Ansara/, Фрэнк Сильвера /Frank Silvera/, Венде Вагнер /Wende Wagner/, Санчо Грация /Sancho Gracia/, Луис Ривера /Luis Rivera/, Жорж Риго /George Rigaud/, Фернандо Рей /Fernando Rey/, Винсент Санджованни /Vicente Sangiovanni/, Рамон Серрано /Ramón Serrano/-Описание: Великолепная семерка под предводительством Криса Адамса берется за сложнейшее задание. Нужно освободить мексиканского революционера, заключенного в крепости под неустанным надзором жестокого коменданта. Работа не из легких, поэтому Семерка решает освободить из тюрьмы политических заключенных и создать свою мини-армию. Силы при штурме крепости оказались неравными, и бравым ребятам пришлось бы туго, если бы не поддержка с совершенно неожиданной стороны…-Доп. информация:

    Релиз: Автор рипа: MECHANICAL ENGINEER-Качество видео: BDRip (Magnificent Seven Collection 1080p BD-Remux)
    Формат видео: AVI
    Видео: 720x304 (2.37:1), 23.976 fps, XviD build 64 ~2178 kbps avg, 0.41 bit/pixel
    Аудио: 48 kHz, AC3 Dolby Digital, 3/2 (L,C,R,l,r) + LFE ch, ~384 kbps | SomeWax
    Аудио 2: 48 kHz, AC3 Dolby Digital, 3/2 (L,C,R,l,r) + LFE ch, ~384.00 kbps avg | Английский
    Размер файлов: 2238.92 Mb (1/2 DVD5)
    Аудио 3: 48 kHz, AC3 Dolby Digital, 2 ch, ~192 kbps | DVD Магия/моно | отдельно
    Формат субтитров: softsub (SRT) : Русские, Английские (SDH). | отдельно

    MediaInfo

    Format                           : AVI
    Format/Info                      : Audio Video Interleave
    Format profile                   : OpenDML
    File size                        : 2.19 GiB
    Duration                         : 1h 46mn
    Overall bit rate                 : 2 953 Kbps
    Movie name                       : Ружья великолепной семерки / Guns of the Magnificent Seven (1969)
    Director                         : MECHANICAL ENGINEER (BD-Remux)
    Writing application              : VirtualDubMod 1.5.10.3 | www.virtualdub-fr.org || (build 2550/release)
    Copyright                        : HQ-ViDEO
    Comment                          : 18.12.2011
    Video
    ID                               : 0
    Format                           : MPEG-4 Visual
    Format profile                   : Advanced Simple@L5
    Format settings, BVOP            : Yes
    Format settings, QPel            : No
    Format settings, GMC             : No warppoints
    Format settings, Matrix          : Custom
    Codec ID                         : XVID
    Codec ID/Hint                    : XviD
    Duration                         : 1h 46mn
    Bit rate                         : 2 167 Kbps
    Width                            : 720 pixels
    Height                           : 304 pixels
    Display aspect ratio             : 2.35:1
    Frame rate                       : 23.976 fps
    Color space                      : YUV
    Chroma subsampling               : 4:2:0
    Bit depth                        : 8 bits
    Scan type                        : Progressive
    Bits/(Pixel*Frame)               : 0.413
    Stream size                      : 1.60 GiB (73%)
    Writing library                  : XviD 64
    Audio #1
    ID                               : 1
    Format                           : AC-3
    Format/Info                      : Audio Coding 3
    Mode extension                   : CM (complete main)
    Codec ID                         : 2000
    Duration                         : 1h 46mn
    Bit rate mode                    : Constant
    Bit rate                         : 384 Kbps
    Channel(s)                       : 6 channels
    Channel positions                : Front: L C R, Side: L R, LFE
    Sampling rate                    : 48.0 KHz
    Bit depth                        : 16 bits
    Stream size                      : 291 MiB (13%)
    Alignment                        : Split accross interleaves
    Interleave, duration             : 42 ms (1.00 video frame)
    Interleave, preload duration     : 500 ms
    Audio #2
    ID                               : 2
    Format                           : AC-3
    Format/Info                      : Audio Coding 3
    Mode extension                   : CM (complete main)
    Codec ID                         : 2000
    Duration                         : 1h 46mn
    Bit rate mode                    : Constant
    Bit rate                         : 384 Kbps
    Channel(s)                       : 6 channels
    Channel positions                : Front: L C R, Side: L R, LFE
    Sampling rate                    : 48.0 KHz
    Bit depth                        : 16 bits
    Stream size                      : 291 MiB (13%)
    Alignment                        : Split accross interleaves
    Interleave, duration             : 42 ms (1.00 video frame)
    Interleave, preload duration     : 500 ms

    Скриншот c названием фильма

    Скриншоты для оценки качества (превью - увеличение по клику):



    Скачать .torrent

    Скачать торрент-файл бесплатно и на максимальной скорости!

    Как скачивать? · Что такое торрент? · Рейтинг и ограничения

    !ВНИМАНИЕ!
    Сайт не распространяет и не хранит электронные версии произведений, а занимается лишь лишь предоставлением доступа к создаваемому пользователями каталогу ссылок на торрент-файлы, которые содержат только списки хеш-сумм, убедительная просьба с жалобами обращаться напрямую к пользователю. Файлы для обмена на трекере предоставлены пользователями сайта, и администрация не несёт ответственности за их содержание. Просьба не заливать файлы, защищенные авторскими правами, а также файлы нелегального содержания!

    [Профиль] [ЛС]
    Показать сообщения:    
    Ответить на тему

    Текущее время: Сегодня, в 18:30

    Часовой пояс: GMT + 2



    Вы не можете начинать темы
    Вы не можете отвечать на сообщения
    Вы не можете редактировать свои сообщения
    Вы не можете удалять свои сообщения
    Вы не можете голосовать в опросах
    Вы не можете прикреплять файлы к сообщениям
    Вы не можете скачивать файлы