BitTorrentTracker PerecTracker.org
BitTorrentTracker PerecTracker.org
    
Регистрация  ·  Вход
 
 · 
Забыли пароль?

  • (Brutal Death Metal) Defacing - Spitting Savagery - 2005, FLAC (image+.cue), lossless

    Ответить на тему
     
    Автор Сообщение

    Columb

    Создавать темы 13-Ноя-2013 08:23

           

    [Цитировать]

    Defacing / Spitting Savagery
    Жанр: Brutal Death Metal
    Страна-производитель диска: Spain
    Год издания: 2005
    Издатель (лейбл): Xtreem music
    Номер по каталогу: xm024cd
    Страна: Chile
    Аудиокодек: FLAC (*.flac)
    Тип рипа: image+.cue
    Битрейт аудио: lossless
    Продолжительность: 00:31:11
    Источник (релизер): Web
    Наличие сканов в содержимом раздачи: нет
    Треклист:
    1 - (Into The Vile) Mutating Inside The Degeneracy
    2 - Flagellated By Insanity
    3 - Spitting Savagery
    4 - Masochist Extermination Of Subhuman Innocence
    5 - Endorsement To The Eternity
    6 - Captive In Agony
    7 - Enjoy The Suffering
    8 - Curse Of The Deformed Fetus
    9 - Phobophile

    Лог создания рипа

    Exact Audio Copy V1.0 beta 3 from 29. August 2011
    EAC extraction logfile from 12. November 2013, 20:11
    Defacing / Spitting Savagery
    Used drive : Optiarc DVD RW AD-5240S Adapter: 0 ID: 1
    Read mode : SecureUtilize accurate stream : YesDefeat audio cache : YesMake use of C2 pointers : No
    Read offset correction : 48Overread into Lead-In and Lead-Out : NoFill up missing offset samples with silence : YesDelete leading and trailing silent blocks : NoNull samples used in CRC calculations : YesUsed interface : Native Win32 interface for Win NT & 2000
    Used output format : User Defined EncoderSelected bitrate : 1024 kBit/sQuality : HighAdd ID3 tag : NoCommand line compressor : C:\Program Files\Exact Audio Copy\Flac\flac.exe
    TOC of the extracted CD
    Track | Start | Length | Start sector | End sector --------------------------------------------------------- 1 | 0:00.00 | 4:00.65 | 0 | 18064 2 | 4:00.65 | 3:38.31 | 18065 | 34445 3 | 7:39.21 | 3:21.03 | 34446 | 49523 4 | 11:00.24 | 3:53.05 | 49524 | 67003 5 | 14:53.29 | 2:32.50 | 67004 | 78453 6 | 17:26.04 | 2:50.13 | 78454 | 91216 7 | 20:16.17 | 3:38.57 | 91217 | 107623 8 | 23:54.74 | 3:00.38 | 107624 | 121161 9 | 26:55.37 | 4:16.22 | 121162 | 140383
    Range status and errors
    Selected range
    Filename G:\Torrents\Defacing - Spitting Savagery.wav
    Peak level 100.0 % Extraction speed 3.6 X Range quality 100.0 % Copy CRC CCAABF65 Copy OK
    No errors occurred
    End of status report

    Лог проверки качества

    -----------------------
    DON'T MODIFY THIS FILE
    -----------------------
    PERFORMER: auCDtect Task Manager, ver. 1.5.1RC4 build 1.5.1.5Copyright (c) 2008-2010 y-soft. All rights reservedhttp://y-soft.org
    ANALYZER: auCDtect: CD records authenticity detector, version 0.8.2Copyright (c) 2004 Oleg Berngardt. All rights reserved.Copyright (c) 2004 Alexander Djourik. All rights reserved.
    FILE: Defacing - Spitting Savagery.flac Size: 232923299 Hash: 9CAF562488D6C24C96741129CA7E8A31 Accuracy: -m0 Conclusion: CDDA 100% Signature: ADD3F799CDBA33CD34EF6BE927CD2671CA9EADC3

    Скриншот спектра частот

    Скачать .torrent

    Скачать торрент-файл бесплатно и на максимальной скорости!

    Как скачивать? · Что такое торрент? · Рейтинг и ограничения

    !ВНИМАНИЕ!
    Сайт не распространяет и не хранит электронные версии произведений, а занимается лишь лишь предоставлением доступа к создаваемому пользователями каталогу ссылок на торрент-файлы, которые содержат только списки хеш-сумм, убедительная просьба с жалобами обращаться напрямую к пользователю. Файлы для обмена на трекере предоставлены пользователями сайта, и администрация не несёт ответственности за их содержание. Просьба не заливать файлы, защищенные авторскими правами, а также файлы нелегального содержания!

    [Профиль] [ЛС]
    Показать сообщения:    
    Ответить на тему

    Текущее время: Сегодня, в 16:51

    Часовой пояс: GMT + 2



    Вы не можете начинать темы
    Вы не можете отвечать на сообщения
    Вы не можете редактировать свои сообщения
    Вы не можете удалять свои сообщения
    Вы не можете голосовать в опросах
    Вы не можете прикреплять файлы к сообщениям
    Вы не можете скачивать файлы