BitTorrentTracker PerecTracker.org
BitTorrentTracker PerecTracker.org
    
Регистрация  ·  Вход
 
 · 
Забыли пароль?

  • (Crossover Progressive) Last Turion - Circle Logic (1992), FLAC (image+.cue+artwork), lossless

    Ответить на тему
     
    Автор Сообщение

    Columb

    Создавать темы 04-Ноя-2013 09:48

           

    [Цитировать]

    Last Turion - Circle Logic
    Жанр: Crossover Progressive
    Год выпуска диска: 1992
    Страна: Germany
    Label: Jumbo records
    Catalog Nr.: CD JU 501
    Аудио кодек: FLAC
    Тип рипа: image+.cue (test©)
    Битрейт аудио: lossless
    Продолжительность: 57:08
    Источник: свой рип
    Трэклист:
    1. Down to of The Games (5:37)
    2. The Hollow space (4:28)
    3. Springwhisper (4:41)
    4. Trilogy (12:01)
    5. Leaves (remix 1992) (5:10)
    6. Credits (5:09)
    7. Living The Rain (7:45)
    8. Circle Logic (12:42)
    9. Ghost (4:41)
    10. This Night (Hymn Reprise) (3:14)
    Total Time: 65:28
    Об альбоме: Дебютный альбом очень интересного немецкого проекта. Хотя, есть мысли о том, что какой-то материал выходил у них и раннее. Второй альбом (а их всего два выходило на CD)

    Музыканты

    - Martin Garden / lead vocals
    - Marc Peter Imann / guitars, chorus
    - Kai Löbbart / keyboards, flute (5), orchestral arrangement (4)
    - Stephan Renecken / bass, chorus
    - Olivier Maximilian Rüssing / drums, percussion, acoustic guitar (5), chorus
    - Jörg Wrede / sound engineer, chorus
    - Zhi Qi "Tine" Huo / chinese poetry
    - Alexa Linz / voice (8)

    Отчет EAC

    Exact Audio Copy V1.0 beta 3 from 29. August 2011
    EAC extraction logfile from 30. October 2013, 21:55
    Last Turion / Circle Logic
    Used drive : TEAC CD-W516EB Adapter: 0 ID: 0
    Read mode : Secure
    Utilize accurate stream : Yes
    Defeat audio cache : Yes
    Make use of C2 pointers : No
    Read offset correction : 685
    Overread into Lead-In and Lead-Out : No
    Fill up missing offset samples with silence : Yes
    Delete leading and trailing silent blocks : No
    Null samples used in CRC calculations : Yes
    Used interface : Native Win32 interface for Win NT & 2000
    Used output format : User Defined Encoder
    Selected bitrate : 1024 kBit/s
    Quality : High
    Add ID3 tag : Yes
    Command line compressor : C:\Program Files (x86)\FLAC_1.3.0\flac.exe
    Additional command line options : -6 -V -T "ARTIST=%artist%" -T "TITLE=%title%" -T "ALBUM=%albumtitle%" -T "DATE=%year%" -T "TRACKNUMBER=%tracknr%" -T "GENRE=%genre%" -T "COMMENT=%comment%" %source% -o %dest%
    TOC of the extracted CD
    Track | Start | Length | Start sector | End sector
    ---------------------------------------------------------
    1 | 0:00.00 | 5:41.12 | 0 | 25586
    2 | 5:41.12 | 4:30.68 | 25587 | 45904
    3 | 10:12.05 | 4:42.55 | 45905 | 67109
    4 | 14:54.60 | 12:05.35 | 67110 | 121519
    5 | 27:00.20 | 5:18.25 | 121520 | 145394
    6 | 32:18.45 | 5:11.52 | 145395 | 168771
    7 | 37:30.22 | 7:47.70 | 168772 | 203866
    8 | 45:18.17 | 12:45.25 | 203867 | 261266
    9 | 58:03.42 | 4:40.55 | 261267 | 282321
    10 | 62:44.22 | 3:13.43 | 282322 | 296839
    Range status and errors
    Selected range
    Filename Y:\EAC\wurensh\Last Turion\Last Turion - Circle Logic.wav
    Peak level 98.9 %
    Extraction speed 7.9 X
    Range quality 100.0 %
    Test CRC 73C9855C
    Copy CRC 73C9855C
    Copy OK
    No errors occurred
    AccurateRip summary
    Track 1 not present in database
    Track 2 not present in database
    Track 3 not present in database
    Track 4 not present in database
    Track 5 not present in database
    Track 6 not present in database
    Track 7 not present in database
    Track 8 not present in database
    Track 9 not present in database
    Track 10 not present in database
    None of the tracks are present in the AccurateRip database
    End of status report

    TAU data

    Скачать .torrent

    Скачать торрент-файл бесплатно и на максимальной скорости!

    Как скачивать? · Что такое торрент? · Рейтинг и ограничения

    !ВНИМАНИЕ!
    Сайт не распространяет и не хранит электронные версии произведений, а занимается лишь лишь предоставлением доступа к создаваемому пользователями каталогу ссылок на торрент-файлы, которые содержат только списки хеш-сумм, убедительная просьба с жалобами обращаться напрямую к пользователю. Файлы для обмена на трекере предоставлены пользователями сайта, и администрация не несёт ответственности за их содержание. Просьба не заливать файлы, защищенные авторскими правами, а также файлы нелегального содержания!

    [Профиль] [ЛС]
    Показать сообщения:    
    Ответить на тему

    Текущее время: Сегодня, в 12:50

    Часовой пояс: GMT + 2



    Вы не можете начинать темы
    Вы не можете отвечать на сообщения
    Вы не можете редактировать свои сообщения
    Вы не можете удалять свои сообщения
    Вы не можете голосовать в опросах
    Вы не можете прикреплять файлы к сообщениям
    Вы не можете скачивать файлы