BitTorrentTracker PerecTracker.org
BitTorrentTracker PerecTracker.org
    
Регистрация  ·  Вход
 
 · 
Забыли пароль?

  • (Vocal Jazz / Pop) Michael Bublé (Buble) - To Be Loved (Deluxe Edition) - 2013, FLAC (tracks+.cue), lossless

    Ответить на тему
     
    Автор Сообщение

    Columb

    Создавать темы 04-Ноя-2013 08:56

           

    [Цитировать]

    Michael Bublé - To Be Loved (Deluxe Edition)-Жанр: Vocal Jazz / Pop
    Производитель диска: EDC, Germany
    Год издания диска: 2013
    Издатель (лейбл): Reprise
    Номер по каталогу: 9362-49449-3-Аудиокодек: FLAC (*.flac)
    Тип рипа: tracks+.cue
    Битрейт аудио: lossless
    Продолжительность: 00:56:58
    Источник (релизер): cобственный рип
    Наличие сканов в содержимом раздачи: да, 600 dpi-Доп. информация: Евпропейское Deluxe-издание, три дополнительных трека.

    Треклист

    01. You Make Me Feel So Young [0:03:05.52]
    02. It's a Beautiful Day [0:03:19.20]
    03. To Love Somebody [0:03:15.27]
    04. Who's Lovin' You [0:02:56.03]
    05. Something Stupid [0:02:57.47]
    06. Come Dance With Me [0:02:46.13]
    07. Close Your Eyes [0:03:33.08]
    08. After All [0:03:37.36]
    09. Have I Told You Lately That I Love You [0:03:26.05]
    10. To Be Loved [0:03:41.15]
    11. You've Got A Friend In Me [0:03:25.52]
    12. Nevertheless (I'm In Love With You) [0:02:55.22]
    13. I Got It Easy [0:03:39.48]
    14. Young At Heart [0:03:45.53]
    Bonus Tracks:
    15. Be My Baby [0:02:48.02]
    16. It's A Beautiful Day [Swing Mix] [0:04:17.06]
    17. My Melancholy Baby [0:03:28.48]
    -

    Лог создания рипа

    Exact Audio Copy V1.0 beta 3 from 29. August 2011
    EAC extraction logfile from 1. November 2013, 23:46
    Michael Bubl� / To Be Loved
    Used drive : PLEXTOR CD-R PX-230A Adapter: 1 ID: 0
    Read mode : SecureUtilize accurate stream : YesDefeat audio cache : YesMake use of C2 pointers : No
    Read offset correction : 738Overread into Lead-In and Lead-Out : NoFill up missing offset samples with silence : YesDelete leading and trailing silent blocks : NoNull samples used in CRC calculations : YesUsed interface : Native Win32 interface for Win NT & 2000Gap handling : Appended to previous track
    Used output format : User Defined EncoderSelected bitrate : 896 kBit/sQuality : HighAdd ID3 tag : NoCommand line compressor : C:\Program Files\Exact Audio Copy\FLAC\FLAC.EXEAdditional command line options : -6 -V -T "ARTIST=%artist%" -T "TITLE=%title%" -T "ALBUM=%albumtitle%" -T "DATE=%year%"-T "TRACKNUMBER=%tracknr%" -T "GENRE=%genre%" -T "COMMENT=%comment%" -T "ALBUMARTIST=%albuminterpret%" -T "COMPOSER=%composer%"-T "DISCNUMBER=%cdnumber%" -T "TOTALDISCS=%totalcds%" -T "TOTALTRACKS=%numtracks%" %source% -o %dest%
    TOC of the extracted CD
    Track | Start | Length | Start sector | End sector --------------------------------------------------------- 1 | 0:00.00 | 3:05.52 | 0 | 13926 2 | 3:05.52 | 3:19.20 | 13927 | 28871 3 | 6:24.72 | 3:15.27 | 28872 | 43523 4 | 9:40.24 | 2:56.03 | 43524 | 56726 5 | 12:36.27 | 2:57.47 | 56727 | 70048 6 | 15:33.74 | 2:46.13 | 70049 | 82511 7 | 18:20.12 | 3:33.08 | 82512 | 98494 8 | 21:53.20 | 3:37.36 | 98495 | 114805 9 | 25:30.56 | 3:26.05 | 114806 | 130260 10 | 28:56.61 | 3:41.15 | 130261 | 146850 11 | 32:38.01 | 3:25.52 | 146851 | 162277 12 | 36:03.53 | 2:55.22 | 162278 | 175424 13 | 38:59.00 | 3:39.48 | 175425 | 191897 14 | 42:38.48 | 3:45.53 | 191898 | 208825 15 | 46:24.26 | 2:48.02 | 208826 | 221427 16 | 49:12.28 | 4:17.06 | 221428 | 240708 17 | 53:29.34 | 3:28.48 | 240709 | 256356
    Track 1
    Filename C:\Music\01 - Michael Bubl� - You Make Me Feel So Young.wav
    Pre-gap length 0:00:02.00
    Peak level 99.4 % Extraction speed 3.2 X Track quality 100.0 % Test CRC BB47FDD9 Copy CRC BB47FDD9 Accurately ripped (confidence 25) [C038B618] (AR v2) Copy OK
    Track 2
    Filename C:\Music\02 - Michael Bubl� - It's a Beautiful Day.wav
    Peak level 100.0 % Extraction speed 3.5 X Track quality 100.0 % Test CRC 9CC7C7AA Copy CRC 9CC7C7AA Accurately ripped (confidence 25) [BDC89164] (AR v2) Copy OK
    Track 3
    Filename C:\Music\03 - Michael Bubl� - To Love Somebody.wav
    Peak level 98.6 % Extraction speed 3.4 X Track quality 100.0 % Test CRC 427AAE13 Copy CRC 427AAE13 Accurately ripped (confidence 25) [AD94549B] (AR v2) Copy OK
    Track 4
    Filename C:\Music\04 - Michael Bubl� - Who's Lovin' You.wav
    Peak level 98.7 % Extraction speed 3.6 X Track quality 100.0 % Test CRC 5DD977FC Copy CRC 5DD977FC Accurately ripped (confidence 25) [AFD177AC] (AR v2) Copy OK
    Track 5
    Filename C:\Music\05 - Michael Bubl� - Something Stupid.wav
    Peak level 99.8 % Extraction speed 3.0 X Track quality 99.9 % Test CRC A9F4AC28 Copy CRC A9F4AC28 Accurately ripped (confidence 25) [F96D301E] (AR v2) Copy OK
    Track 6
    Filename C:\Music\06 - Michael Bubl� - Come Dance With Me.wav
    Peak level 100.0 % Extraction speed 3.1 X Track quality 100.0 % Test CRC 83F46FF0 Copy CRC 83F46FF0 Accurately ripped (confidence 25) [5EC19C6D] (AR v2) Copy OK
    Track 7
    Filename C:\Music\07 - Michael Bubl� - Close Your Eyes.wav
    Peak level 100.0 % Extraction speed 3.1 X Track quality 99.9 % Test CRC F5512F64 Copy CRC F5512F64 Accurately ripped (confidence 25) [DF7EB7EB] (AR v2) Copy OK
    Track 8
    Filename C:\Music\08 - Michael Bubl� - After All.wav
    Peak level 100.0 % Extraction speed 3.3 X Track quality 99.9 % Test CRC 8FD2B4C2 Copy CRC 8FD2B4C2 Accurately ripped (confidence 25) [E13883E8] (AR v2) Copy OK
    Track 9
    Filename C:\Music\09 - Michael Bubl� - Have I Told You Lately That I Love You.wav
    Peak level 100.0 % Extraction speed 3.2 X Track quality 100.0 % Test CRC 43AEB7EC Copy CRC 43AEB7EC Accurately ripped (confidence 25) [1D7F34E4] (AR v2) Copy OK
    Track 10
    Filename C:\Music\10 - Michael Bubl� - To Be Loved.wav
    Peak level 99.7 % Extraction speed 3.3 X Track quality 100.0 % Test CRC 4697D9FF Copy CRC 4697D9FF Accurately ripped (confidence 25) [9B9E26EC] (AR v2) Copy OK
    Track 11
    Filename C:\Music\11 - Michael Bubl� - You've Got A Friend In Me.wav
    Peak level 100.0 % Extraction speed 3.2 X Track quality 100.0 % Test CRC 4F8844B9 Copy CRC 4F8844B9 Accurately ripped (confidence 25) [00BC069F] (AR v2) Copy OK
    Track 12
    Filename C:\Music\12 - Michael Bubl� - Nevertheless (I'm In Love With You).wav
    Peak level 98.9 % Extraction speed 3.0 X Track quality 99.9 % Test CRC 668B7E25 Copy CRC 668B7E25 Accurately ripped (confidence 25) [5A4B3DC6] (AR v2) Copy OK
    Track 13
    Filename C:\Music\13 - Michael Bubl� - I Got It Easy.wav
    Peak level 100.0 % Extraction speed 3.3 X Track quality 100.0 % Test CRC 9BA6B3A5 Copy CRC 9BA6B3A5 Accurately ripped (confidence 25) [D1CF9BFB] (AR v2) Copy OK
    Track 14
    Filename C:\Music\14 - Michael Bubl� - Young At Heart.wav
    Peak level 100.0 % Extraction speed 3.5 X Track quality 100.0 % Test CRC 846EB2D6 Copy CRC 846EB2D6 Accurately ripped (confidence 25) [3CCEA16B] (AR v2) Copy OK
    Track 15
    Filename C:\Music\15 - Michael Bubl� - Be My Baby.wav
    Pre-gap length 0:00:02.74
    Peak level 100.0 % Extraction speed 3.4 X Track quality 100.0 % Test CRC 0AD770A9 Copy CRC 0AD770A9 Accurately ripped (confidence 25) [4E2B41D7] (AR v2) Copy OK
    Track 16
    Filename C:\Music\16 - Michael Bubl� - It's A Beautiful Day [Swing Mix].wav
    Peak level 96.9 % Extraction speed 3.6 X Track quality 100.0 % Test CRC C2A916DE Copy CRC C2A916DE Accurately ripped (confidence 25) [F6FA7746] (AR v2) Copy OK
    Track 17
    Filename C:\Music\17 - Michael Bubl� - My Melancholy Baby.wav
    Peak level 97.3 % Extraction speed 3.2 X Track quality 100.0 % Test CRC C2D360DF Copy CRC C2D360DF Accurately ripped (confidence 25) [B2CB9C27] (AR v2) Copy OK
    All tracks accurately ripped
    No errors occurred
    End of status report
    ==== Log checksum B12BDAF78FACE115ED20F78ED28A55C4847D3B3E5960B5F06F2248EF2B3F14E6 ====

    Содержание индексной карты (.CUE)

    REM GENRE JazzREM DATE 2013REM DISCID EA0D5A11REM COMMENT "ExactAudioCopy v1.0b3"PERFORMER "Michael Bubl�"TITLE "To Be Loved"FILE "01 - Michael Buble - You Make Me Feel So Young.wav" WAVE TRACK 01 AUDIO TITLE "You Make Me Feel So Young" PERFORMER "Michael Bubl�" INDEX 01 00:00:00FILE "02 - Michael Buble - It's a Beautiful Day.wav" WAVE TRACK 02 AUDIO TITLE "It's a Beautiful Day" PERFORMER "Michael Bubl�" INDEX 01 00:00:00FILE "03 - Michael Buble - To Love Somebody.wav" WAVE TRACK 03 AUDIO TITLE "To Love Somebody" PERFORMER "Michael Bubl�" INDEX 01 00:00:00FILE "04 - Michael Buble - Who's Lovin' You.wav" WAVE TRACK 04 AUDIO TITLE "Who's Lovin' You" PERFORMER "Michael Bubl�" INDEX 01 00:00:00FILE "05 - Michael Buble - Something Stupid.wav" WAVE TRACK 05 AUDIO TITLE "Something Stupid" PERFORMER "Michael Bubl�" INDEX 01 00:00:00FILE "06 - Michael Buble - Come Dance With Me.wav" WAVE TRACK 06 AUDIO TITLE "Come Dance With Me" PERFORMER "Michael Bubl�" INDEX 01 00:00:00FILE "07 - Michael Buble - Close Your Eyes.wav" WAVE TRACK 07 AUDIO TITLE "Close Your Eyes" PERFORMER "Michael Bubl�" INDEX 01 00:00:00FILE "08 - Michael Buble - After All.wav" WAVE TRACK 08 AUDIO TITLE "After All" PERFORMER "Michael Bubl�" INDEX 01 00:00:00FILE "09 - Michael Buble - Have I Told You Lately That I Love You.wav" WAVE TRACK 09 AUDIO TITLE "Have I Told You Lately That I Love You" PERFORMER "Michael Bubl�" INDEX 01 00:00:00FILE "10 - Michael Buble - To Be Loved.wav" WAVE TRACK 10 AUDIO TITLE "To Be Loved" PERFORMER "Michael Bubl�" INDEX 01 00:00:00FILE "11 - Michael Buble - You've Got A Friend In Me.wav" WAVE TRACK 11 AUDIO TITLE "You've Got A Friend In Me" PERFORMER "Michael Bubl�" INDEX 01 00:00:00FILE "12 - Michael Buble - Nevertheless (I'm In Love With You).wav" WAVE TRACK 12 AUDIO TITLE "Nevertheless (I'm In Love With You)" PERFORMER "Michael Bubl�" INDEX 01 00:00:00FILE "13 - Michael Buble - I Got It Easy.wav" WAVE TRACK 13 AUDIO TITLE "I Got It Easy" PERFORMER "Michael Bubl�" INDEX 01 00:00:00FILE "14 - Michael Buble - Young At Heart.wav" WAVE TRACK 14 AUDIO TITLE "Young At Heart" PERFORMER "Michael Bubl�" INDEX 01 00:00:00 TRACK 15 AUDIO TITLE "Be My Baby" PERFORMER "Michael Bubl�" INDEX 00 03:42:54FILE "15 - Michael Buble - Be My Baby.wav" WAVE INDEX 01 00:00:00FILE "16 - Michael Buble - It's A Beautiful Day [Swing Mix].wav" WAVE TRACK 16 AUDIO TITLE "It's A Beautiful Day [Swing Mix]" PERFORMER "Michael Bubl�" INDEX 01 00:00:00FILE "17 - Michael Buble - My Melancholy Baby.wav" WAVE TRACK 17 AUDIO TITLE "My Melancholy Baby" PERFORMER "Michael Bubl�" INDEX 01 00:00:00
    Скачать .torrent

    Скачать торрент-файл бесплатно и на максимальной скорости!

    Как скачивать? · Что такое торрент? · Рейтинг и ограничения

    !ВНИМАНИЕ!
    Сайт не распространяет и не хранит электронные версии произведений, а занимается лишь лишь предоставлением доступа к создаваемому пользователями каталогу ссылок на торрент-файлы, которые содержат только списки хеш-сумм, убедительная просьба с жалобами обращаться напрямую к пользователю. Файлы для обмена на трекере предоставлены пользователями сайта, и администрация не несёт ответственности за их содержание. Просьба не заливать файлы, защищенные авторскими правами, а также файлы нелегального содержания!

    [Профиль] [ЛС]
    Показать сообщения:    
    Ответить на тему

    Текущее время: Сегодня, в 05:56

    Часовой пояс: GMT + 2



    Вы не можете начинать темы
    Вы не можете отвечать на сообщения
    Вы не можете редактировать свои сообщения
    Вы не можете удалять свои сообщения
    Вы не можете голосовать в опросах
    Вы не можете прикреплять файлы к сообщениям
    Вы не можете скачивать файлы