BitTorrentTracker PerecTracker.org
BitTorrentTracker PerecTracker.org
    
Регистрация  ·  Вход
 
 · 
Забыли пароль?

  • (Atmospheric Black Metal) Morgul - Lost In Shadows Grey - 1997, FLAC (image+.cue), lossless

    Ответить на тему
     
    Автор Сообщение

    Columb

    Создавать темы 04-Ноя-2013 08:25

           

    [Цитировать]

    Morgul - Lost In Shadows Grey-
    Жанр: Atmospheric Black Metal
    Страна-производитель диска: Russia
    Год издания: 1997
    Издатель (лейбл): Napalm Records / Irond Ltd.
    Номер по каталогу: CD 08-1464
    Страна: Norway
    Аудиокодек: FLAC (*.flac)
    Тип рипа: image+.cue
    Битрейт аудио: lossless
    Продолжительность: 00:41:20
    Источник (релизер): собственный рип
    Наличие сканов в содержимом раздачи: да
    Треклист:
    01. Enthroned (07:51)
    02. The Dark Infinity (07:38)
    03. Hunger Of The Immortals (09:00)
    04. My Bride... (08:32)
    05. River Of Princess (08:18)

    Лог создания рипа

    Exact Audio Copy V1.0 beta 3 from 29. August 2011
    EAC extraction logfile from 1. November 2013, 17:48
    Morgul / Lost In Shadows Grey
    Used drive : TEAC DV-W522GMA Adapter: 0 ID: 0
    Read mode : SecureUtilize accurate stream : YesDefeat audio cache : YesMake use of C2 pointers : No
    Read offset correction : 6Overread into Lead-In and Lead-Out : NoFill up missing offset samples with silence : YesDelete leading and trailing silent blocks : NoNull samples used in CRC calculations : YesUsed interface : Native Win32 interface for Win NT & 2000
    Used output format : User Defined EncoderSelected bitrate : 128 kBit/sQuality : HighAdd ID3 tag : NoCommand line compressor : C:\Program Files\Exact Audio Copy\Flac\flac.exeAdditional command line options : -V -8 -T "Date=%year%" -T "Genre=%genre%" %source%
    TOC of the extracted CD
    Track | Start | Length | Start sector | End sector --------------------------------------------------------- 1 | 0:00.00 | 7:51.07 | 0 | 35331 2 | 7:51.07 | 7:38.33 | 35332 | 69714 3 | 15:29.40 | 9:00.42 | 69715 | 110256 4 | 24:30.07 | 8:32.48 | 110257 | 148704 5 | 33:02.55 | 8:18.11 | 148705 | 186065
    Range status and errors
    Selected range
    Filename D:\rutracker.org\Sautumnblaze\Morgul - Lost In Shadows Grey.wav
    Peak level 98.8 % Extraction speed 7.9 X Range quality 100.0 % Test CRC EC0C82D4 Copy CRC EC0C82D4 Copy OK
    No errors occurred
    AccurateRip summary
    Track 1 accurately ripped (confidence 5) [478DDEE3] (AR v1)Track 2 accurately ripped (confidence 5) [EC1EE2A1] (AR v1)Track 3 accurately ripped (confidence 5) [9A12D807] (AR v1)Track 4 accurately ripped (confidence 5) [A2359952] (AR v1)Track 5 accurately ripped (confidence 5) [085C8B37] (AR v1)
    All tracks accurately ripped
    End of status report
    ---- CUETools DB Plugin V2.1.5
    [CTDB TOCID: G_18ioPhtGbaAOfYWOZe5KgAJPg-] foundSubmit result: already submittedTrack | CTDB Status 1 | (2/2) Accurately ripped 2 | (2/2) Accurately ripped 3 | (2/2) Accurately ripped 4 | (2/2) Accurately ripped 5 | (2/2) Accurately ripped
    ==== Log checksum 5560F82729F68D3B8ED3A3E7C912DEAB1C0DAC49330ED67C760C2D73077164B3 ====

    Содержание индексной карты (.CUE)

    REM GENRE "Atmospheric Black Metal"REM DATE 1997REM DISCID 4109B005REM COMMENT "ExactAudioCopy v1.0b3"PERFORMER "Morgul"TITLE "Lost In Shadows Grey"FILE "Morgul - Lost In Shadows Grey.flac" WAVE TRACK 01 AUDIO TITLE "Enthroned" PERFORMER "Morgul" INDEX 01 00:00:00 TRACK 02 AUDIO TITLE "The Dark Infinity" PERFORMER "Morgul" INDEX 01 07:51:07 TRACK 03 AUDIO TITLE "Hunger Of The Immortals" PERFORMER "Morgul" INDEX 01 15:29:40 TRACK 04 AUDIO TITLE "My Bride..." PERFORMER "Morgul" INDEX 01 24:30:07 TRACK 05 AUDIO TITLE "River Of Princess" PERFORMER "Morgul" INDEX 01 33:02:55
    -

    auCDtect

    -----------------------
    DON'T MODIFY THIS FILE
    -----------------------
    PERFORMER: auCDtect Task Manager, ver. 1.5.1RC6 build 1.5.1.7
    Copyright (c) 2008-2010 y-soft. All rights reserved
    http://y-soft.org
    ANALYZER: auCDtect: CD records authenticity detector, version 0.8.2
    Copyright (c) 2004 Oleg Berngardt. All rights reserved.
    Copyright (c) 2004 Alexander Djourik. All rights reserved.
    FILE: Morgul - Lost In Shadows Grey.flac
    Size: 271684195 Hash: 96B5F8E49AA958D3E47C4DB33A01B720 Accuracy: -m0
    Conclusion: CDDA 100%
    Signature: 43BFDEF77C8F02037E167B6AAD55BCA0333D381C

    TT Dynamic Range Meter

    foobar2000 1.1.10 / Dynamic Range Meter 1.1.1
    log date: 2013-11-01 19:57:03
    --------------------------------------------------------------------------------
    Analyzed: Morgul / Lost In Shadows Grey
    --------------------------------------------------------------------------------
    DR Peak RMS Duration Track
    --------------------------------------------------------------------------------
    DR8 -0.10 dB -11.22 dB 7:51 01-Enthroned
    DR10 -0.10 dB -11.62 dB 7:38 02-The Dark Infinity
    DR8 -0.10 dB -11.10 dB 9:01 03-Hunger Of The Immortals
    DR9 -0.10 dB -11.67 dB 8:33 04-My Bride...
    DR9 -0.10 dB -11.13 dB 8:18 05-River Of Princess
    --------------------------------------------------------------------------------
    Number of tracks: 5
    Official DR value: DR9
    Samplerate: 44100 Hz
    Channels: 2
    Bits per sample: 16
    Bitrate: 876 kbps
    Codec: FLAC
    ================================================================================
    Скачать .torrent

    Скачать торрент-файл бесплатно и на максимальной скорости!

    Как скачивать? · Что такое торрент? · Рейтинг и ограничения

    !ВНИМАНИЕ!
    Сайт не распространяет и не хранит электронные версии произведений, а занимается лишь лишь предоставлением доступа к создаваемому пользователями каталогу ссылок на торрент-файлы, которые содержат только списки хеш-сумм, убедительная просьба с жалобами обращаться напрямую к пользователю. Файлы для обмена на трекере предоставлены пользователями сайта, и администрация не несёт ответственности за их содержание. Просьба не заливать файлы, защищенные авторскими правами, а также файлы нелегального содержания!

    [Профиль] [ЛС]
    Показать сообщения:    
    Ответить на тему

    Текущее время: Сегодня, в 18:49

    Часовой пояс: GMT + 2



    Вы не можете начинать темы
    Вы не можете отвечать на сообщения
    Вы не можете редактировать свои сообщения
    Вы не можете удалять свои сообщения
    Вы не можете голосовать в опросах
    Вы не можете прикреплять файлы к сообщениям
    Вы не можете скачивать файлы