BitTorrentTracker PerecTracker.org
BitTorrentTracker PerecTracker.org
    
Регистрация  ·  Вход
 
 · 
Забыли пароль?

  • Hooverphonic With Orchestra Live [2012 г., Chillout, Trip-hop, DVDRip]

    Ответить на тему
     
    Автор Сообщение

    Columb

    Создавать темы 04-Ноя-2013 08:22

           

    [Цитировать]

    Hooverphonic With Orchestra Live--Страна: Бельгия
    Жанр: Chillout, Trip-hop
    Продолжительность: 01:29:44
    Год выпуска: 2012 г.
    Описание: Hooverphonic (Хуверфоник; англ. досл. «Пылесософония»: Hoover — пылесос, phonic — звуковой, акустический) — бельгийская поп- и рок-группа, образовавшаяся во Фландрии в 1995 году. В начале своей деятельности музыку этой группы относили к жанру трип-хоп, однако довольно быстро группа стала играть в разных жанрах. Изначально группа называлась Hoover (Хувер). Изменение названия на Hooverphonic было обусловлено недовольством небезызвестной фирмы, производящей пылесосы.
    В настоящее время творчество группы часто причисляют к жанру лаунж.
    -

    Треклист

    01. Battersea
    02. One Two Three
    03. Heartbroken
    04. The Night Before
    05. Club Montepulciano
    06. The Last Thing I Need Is You
    07. 2 Wicky
    08. Anger Never Dies
    09. Unfinished Sympathy
    10. Expedition Impossible
    11. George's Cafe
    12. Happiness
    13. The World Is Mine
    14. Jackie Cane
    15. Mad About You
    16. Sometimes
    17. Vinegar & Salt
    18. Eden
    19. Renaissance Affair
    20. La Horse
    21. Danger Zone
    Сэмпл: Hooverphonic With Orchestra Sample.mkv
    Качество: DVDRip
    Контейнер: MKV
    Видео: MPEG-4 AVC (H264), High Profile 4.1, 720x576 @ 1024x576, 23.976 fps, ~2500 kbps avg, bit/(pixel*frame) 0.241
    Аудио 1: 48 kHz, AC3, 2.0 (L,R) ch, ~224.00 kbps avg
    Аудио 2: 48 kHz, AC3, 3/2 (L,C,R,l,r) + LFE ch, ~448.00 kbps avg
    Аудио 3: 48 kHz, DTS, 3/2 (L,C,R,l,r) + LFE ch, ~1510.00 kbps avg
    Присутствует навигащия по трекам.-

    Скриншоты не анаморф

    Скриншоты анаморф

    MediaInfo

    L:\music video\Hooverphonic\Hooverphonic - With Orchestra Live (2012) 1024x576 DVDRip.mkv
    General
    Unique ID : 181018026908286046977975124774630590840 (0x882ECDC917507FAD80DEA44FFEEE0978)
    Complete name : L:\music video\Hooverphonic\Hooverphonic - With Orchestra Live (2012) 1024x576 DVDRip.mkv
    Format : Matroska
    Format version : Version 4 / Version 2
    File size : 2.94 GiB
    Duration : 1h 29mn
    Overall bit rate : 4 685 Kbps
    Movie name : -=RbM=-
    Encoded date : UTC 2013-11-03 10:16:39
    Writing application : mkvmerge v6.5.0 ('Isn't she lovely') built on Oct 20 2013 12:50:05
    Writing library : libebml v1.3.0 + libmatroska v1.4.1
    Video #1
    ID : 1
    Format : AVC
    Format/Info : Advanced Video Codec
    Format profile : High@L4.1
    Format settings, CABAC : Yes
    Format settings, ReFrames : 8 frames
    Codec ID : V_MPEG4/ISO/AVC
    Duration : 1h 29mn
    Bit rate : 2 500 Kbps
    Width : 720 pixels
    Height : 576 pixels
    Display aspect ratio : 16:9
    Frame rate mode : Constant
    Frame rate : 25.000 fps
    Standard : PAL
    Color space : YUV
    Chroma subsampling : 4:2:0
    Bit depth : 8 bits
    Scan type : Progressive
    Bits/(Pixel*Frame) : 0.241
    Stream size : 1.51 GiB (51%)
    Writing library : x264 core 138 r2359+704+48 3f879a0 tMod [8-bit@all X86]
    Encoding settings : cabac=1 / ref=8 / deblock=1:-2:-2 / analyse=0x3:0x133 / me=umh / subme=10 / psy=1 / fade_compensate=0.00 / psy_rd=1.00:0.00 / mixed_ref=1 / me_range=24 / chroma_me=1 / trellis=2 / 8x8dct=1 / cqm=0 / deadzone=21,11 / fast_pskip=0 / chroma_qp_offset=-2 / threads=12 / lookahead_threads=2 / sliced_threads=0 / nr=0 / decimate=0 / interlaced=0 / bluray_compat=0 / constrained_intra=0 / fgo=0 / bframes=8 / b_pyramid=2 / b_adapt=2 / b_bias=0 / direct=3 / weightb=1 / open_gop=0 / weightp=2 / keyint=250 / keyint_min=23 / scenecut=40 / intra_refresh=0 / rc_lookahead=80 / rc=2pass / mbtree=1 / bitrate=2500 / ratetol=1.0 / qcomp=0.70 / qpmin=0:0:0 / qpmax=69:69:69 / qpstep=4 / cplxblur=20.0 / qblur=0.5 / ip_ratio=1.40 / aq=4:1.00 / aq-sensitivity=10.00 / aq-factor=1.00:1.00:1.00 / aq2=0 / aq3=0
    Language : English
    Default : Yes
    Forced : No
    Audio #2
    ID : 2
    Format : AC-3
    Format/Info : Audio Coding 3
    Mode extension : CM (complete main)
    Format settings, Endianness : Big
    Codec ID : A_AC3
    Duration : 1h 29mn
    Bit rate mode : Constant
    Bit rate : 224 Kbps
    Channel count : 2 channels
    Channel positions : Front: L R
    Sampling rate : 48.0 KHz
    Bit depth : 16 bits
    Compression mode : Lossy
    Stream size : 144 MiB (5%)
    Title : AC3 2.0ch 224kbps
    Language : English
    Default : Yes
    Forced : No
    Audio #3
    ID : 3
    Format : AC-3
    Format/Info : Audio Coding 3
    Mode extension : CM (complete main)
    Format settings, Endianness : Big
    Codec ID : A_AC3
    Duration : 1h 29mn
    Bit rate mode : Constant
    Bit rate : 448 Kbps
    Channel count : 6 channels
    Channel positions : Front: L C R, Side: L R, LFE
    Sampling rate : 48.0 KHz
    Bit depth : 16 bits
    Compression mode : Lossy
    Stream size : 288 MiB (10%)
    Title : AC3 5.1ch 448kbps
    Language : English
    Default : No
    Forced : No
    Audio #4
    ID : 4
    Format : DTS
    Format/Info : Digital Theater Systems
    Mode : 16
    Format settings, Endianness : Big
    Codec ID : A_DTS
    Duration : 1h 29mn
    Bit rate mode : Constant
    Bit rate : 1 510 Kbps
    Channel count : 6 channels
    Channel positions : Front: L C R, Side: L R, LFE
    Sampling rate : 48.0 KHz
    Bit depth : 24 bits
    Compression mode : Lossy
    Stream size : 969 MiB (32%)
    Title : DTS 5.1ch 1510kbps
    Language : English
    Default : No
    Forced : No
    Menu
    00:00:00.000 : en:Battersea
    00:02:33.000 : en:One Two Three
    00:06:37.000 : en:Heartbroken
    00:09:40.000 : en:The Night Before
    00:12:38.000 : en:Club Montepulciano
    00:15:59.000 : en:The Last Thing I Need Is You
    00:19:00.000 : en:2 Wicky
    00:25:25.000 : en:Anger Never Dies
    00:29:14.000 : en:Unfinished Sympathy
    00:32:31.000 : en:Expedition Impossible
    00:36:54.000 : en:George's Cafe
    00:40:59.000 : en:Happiness
    00:44:37.000 : en:The World Is Mine
    00:47:47.000 : en:Jackie Cane
    00:52:01.000 : en:Mad About You
    00:56:02.000 : en:Sometimes
    01:04:15.000 : en:Vinegar & Salt
    01:08:06.000 : en:Eden
    01:13:15.000 : en:Renaissance Affair
    01:18:56.000 : en:La Horse
    01:24:55.000 : en:Danger Zone
    Скачать .torrent

    Скачать торрент-файл бесплатно и на максимальной скорости!

    Как скачивать? · Что такое торрент? · Рейтинг и ограничения

    !ВНИМАНИЕ!
    Сайт не распространяет и не хранит электронные версии произведений, а занимается лишь лишь предоставлением доступа к создаваемому пользователями каталогу ссылок на торрент-файлы, которые содержат только списки хеш-сумм, убедительная просьба с жалобами обращаться напрямую к пользователю. Файлы для обмена на трекере предоставлены пользователями сайта, и администрация не несёт ответственности за их содержание. Просьба не заливать файлы, защищенные авторскими правами, а также файлы нелегального содержания!

    [Профиль] [ЛС]
    Показать сообщения:    
    Ответить на тему

    Текущее время: Сегодня, в 09:51

    Часовой пояс: GMT + 2



    Вы не можете начинать темы
    Вы не можете отвечать на сообщения
    Вы не можете редактировать свои сообщения
    Вы не можете удалять свои сообщения
    Вы не можете голосовать в опросах
    Вы не можете прикреплять файлы к сообщениям
    Вы не можете скачивать файлы