BitTorrentTracker PerecTracker.org
BitTorrentTracker PerecTracker.org
    
Регистрация  ·  Вход
 
 · 
Забыли пароль?

  • (Atmospheric Black Metal) Morgul - Parody Of The Mass - 1998, FLAC (image+.cue), lossless

    Ответить на тему
     
    Автор Сообщение

    Columb

    Создавать темы 04-Ноя-2013 08:18

           

    [Цитировать]

    Morgul - Parody Of The Mass-
    Жанр: Atmospheric Black Metal
    Страна-производитель диска: Russia
    Год издания: 1998
    Издатель (лейбл): Napalm Records / Irond Ltd.
    Номер по каталогу: CD 08-1465
    Страна: Norway
    Аудиокодек: FLAC (*.flac)
    Тип рипа: image+.cue
    Битрейт аудио: lossless
    Продолжительность: 00:38:33
    Источник (релизер): собственный рип
    Наличие сканов в содержимом раздачи: да
    Треклист:
    01. Black Hearts Domain (06:30)
    02. Healing The Blind (04:02)
    03. Torn (02:48)
    04. Ballad Of Revolt (08:06)
    05. Adoration Of The Profane (05:40)
    06. Author Of Pain (07:26)
    07. The End (03:58)

    Лог создания рипа

    Exact Audio Copy V1.0 beta 3 from 29. August 2011
    EAC extraction logfile from 1. November 2013, 10:33
    Morgul / Parody Of The Mass
    Used drive : TEAC DV-W522GMA Adapter: 0 ID: 0
    Read mode : SecureUtilize accurate stream : YesDefeat audio cache : YesMake use of C2 pointers : No
    Read offset correction : 6Overread into Lead-In and Lead-Out : NoFill up missing offset samples with silence : YesDelete leading and trailing silent blocks : NoNull samples used in CRC calculations : YesUsed interface : Native Win32 interface for Win NT & 2000
    Used output format : User Defined EncoderSelected bitrate : 128 kBit/sQuality : HighAdd ID3 tag : NoCommand line compressor : C:\Program Files\Exact Audio Copy\Flac\flac.exeAdditional command line options : -V -8 -T "Date=%year%" -T "Genre=%genre%" %source%
    TOC of the extracted CD
    Track | Start | Length | Start sector | End sector --------------------------------------------------------- 1 | 0:00.00 | 6:33.10 | 0 | 29484 2 | 6:33.10 | 4:05.44 | 29485 | 47903 3 | 10:38.54 | 2:51.57 | 47904 | 60785 4 | 13:30.36 | 8:09.62 | 60786 | 97522 5 | 21:40.23 | 5:43.29 | 97523 | 123276 6 | 27:23.52 | 7:29.53 | 123277 | 157004 7 | 34:53.30 | 3:58.26 | 157005 | 174880
    Range status and errors
    Selected range
    Filename D:\rutracker.org\Sautumnblaze\Morgul - Parody Of The Mass.wav
    Peak level 96.6 % Extraction speed 7.8 X Range quality 100.0 % Test CRC ABEC4F4D Copy CRC ABEC4F4D Copy OK
    No errors occurred
    AccurateRip summary
    Track 1 accurately ripped (confidence 6) [50992423] (AR v1)Track 2 accurately ripped (confidence 6) [3584356D] (AR v1)Track 3 accurately ripped (confidence 6) [3090C85A] (AR v1)Track 4 accurately ripped (confidence 6) [B75D59FC] (AR v1)Track 5 accurately ripped (confidence 6) [2E8CD646] (AR v1)Track 6 accurately ripped (confidence 6) [83D50AA1] (AR v1)Track 7 accurately ripped (confidence 6) [BCF0D082] (AR v1)
    All tracks accurately ripped
    End of status report
    ---- CUETools DB Plugin V2.1.5
    [CTDB TOCID: riwTw1BkorU.vA.OeoPPjR8SEis-] database access error: The operation has timed out
    ==== Log checksum 573BBBE5BC891D9D6E0DD8DD0479D4BC41E7C2ED4C362D9DD8B476A133030030 ====

    Содержание индексной карты (.CUE)

    REM GENRE "Atmospheric Black Metal"REM DATE 1998REM DISCID 4E091B07REM COMMENT "ExactAudioCopy v1.0b3"PERFORMER "Morgul"TITLE "Parody Of The Mass"FILE "Morgul - Parody Of The Mass.flac" WAVE TRACK 01 AUDIO TITLE "Black Hearts Domain" PERFORMER "Morgul" INDEX 01 00:00:00 TRACK 02 AUDIO TITLE "Healing The Blind" PERFORMER "Morgul" INDEX 00 06:30:10 INDEX 01 06:33:10 TRACK 03 AUDIO TITLE "Torn" PERFORMER "Morgul" INDEX 00 10:35:54 INDEX 01 10:38:54 TRACK 04 AUDIO TITLE "Ballad Of Revolt" PERFORMER "Morgul" INDEX 00 13:27:36 INDEX 01 13:30:36 TRACK 05 AUDIO TITLE "Adoration Of The Profane" PERFORMER "Morgul" INDEX 00 21:37:23 INDEX 01 21:40:23 TRACK 06 AUDIO TITLE "Author Of Pain" PERFORMER "Morgul" INDEX 00 27:20:52 INDEX 01 27:23:52 TRACK 07 AUDIO TITLE "The End" PERFORMER "Morgul" INDEX 00 34:50:30 INDEX 01 34:53:30
    -

    auCDtect

    -----------------------
    DON'T MODIFY THIS FILE
    -----------------------
    PERFORMER: auCDtect Task Manager, ver. 1.5.1RC6 build 1.5.1.7
    Copyright (c) 2008-2010 y-soft. All rights reserved
    http://y-soft.org
    ANALYZER: auCDtect: CD records authenticity detector, version 0.8.2
    Copyright (c) 2004 Oleg Berngardt. All rights reserved.
    Copyright (c) 2004 Alexander Djourik. All rights reserved.
    FILE: Morgul - Parody Of The Mass.flac
    Size: 281552572 Hash: DE40C02DC2FC8AAEBB4F440DC4E64874 Accuracy: -m0
    Conclusion: CDDA 100%
    Signature: E7B322D6956E9DB611EE388F70311287ECBA3AA7

    TT Dynamic Range Meter

    foobar2000 1.1.10 / Dynamic Range Meter 1.1.1
    log date: 2013-11-01 19:57:53
    --------------------------------------------------------------------------------
    Analyzed: Morgul / Parody Of The Mass
    --------------------------------------------------------------------------------
    DR Peak RMS Duration Track
    --------------------------------------------------------------------------------
    DR6 -0.30 dB -8.04 dB 6:33 01-Black Hearts Domain
    DR7 -0.30 dB -9.07 dB 4:06 02-Healing The Blind
    DR10 -0.30 dB -13.07 dB 2:52 03-Torn
    DR7 -0.30 dB -8.35 dB 8:10 04-Ballad Of Revolt
    DR7 -0.30 dB -8.98 dB 5:43 05-Adoration Of The Profane
    DR7 -0.30 dB -8.71 dB 7:30 06-Author Of Pain
    DR6 -0.30 dB -8.29 dB 3:58 07-The End
    --------------------------------------------------------------------------------
    Number of tracks: 7
    Official DR value: DR7
    Samplerate: 44100 Hz
    Channels: 2
    Bits per sample: 16
    Bitrate: 966 kbps
    Codec: FLAC
    ================================================================================
    Скачать .torrent

    Скачать торрент-файл бесплатно и на максимальной скорости!

    Как скачивать? · Что такое торрент? · Рейтинг и ограничения

    !ВНИМАНИЕ!
    Сайт не распространяет и не хранит электронные версии произведений, а занимается лишь лишь предоставлением доступа к создаваемому пользователями каталогу ссылок на торрент-файлы, которые содержат только списки хеш-сумм, убедительная просьба с жалобами обращаться напрямую к пользователю. Файлы для обмена на трекере предоставлены пользователями сайта, и администрация не несёт ответственности за их содержание. Просьба не заливать файлы, защищенные авторскими правами, а также файлы нелегального содержания!

    [Профиль] [ЛС]
    Показать сообщения:    
    Ответить на тему

    Текущее время: Сегодня, в 21:25

    Часовой пояс: GMT + 2



    Вы не можете начинать темы
    Вы не можете отвечать на сообщения
    Вы не можете редактировать свои сообщения
    Вы не можете удалять свои сообщения
    Вы не можете голосовать в опросах
    Вы не можете прикреплять файлы к сообщениям
    Вы не можете скачивать файлы