Register  ·  Log in
Forgot password?

  • Кровавое воскресенье / Bloody Sunday (Пол Гринграсс / Paul Greengrass) [2001, Великобритания, Драма, военный, история, DVDRip] MVO (Екатеренбург АРТ)

    Reply to topic
    Author Message


    Post 03-Nov-2013 13:34



    Кровавое воскресенье / Bloody Sunday-Год выпуска: 2001
    Выпущено: Великобритания, Ирландия / Portman Entertainment Group
    Жанр: драма, военный, история
    Продолжительность: 01:42:43
    Перевод: Профессиональный (многоголосый закадровый) Екатеренбург АРТ
    Cубтитры: нет-Режиссер:
    Пол Гринграсс / Paul Greengrass-В ролях:
    Джеймс Несбитт (Ivan Cooper), Аллан Гилди (Kevin McCorry), Герард Кроссан (Eamonn McCann), Мэри Моулдс (Bernadette Devlin), Кармел МакКэллион (Bridget Bond), Тим Пиготт-Смит (Major General Ford), Николас Фэррел (Brigadier Maclellan), Кристофер Вилльерс (Major Steele), Джеймс Хьюит (Colonel Tugwell)-Описание:
    История трагических событий 30 января 1972 года в североирландском городе Дерри. В этот день британские солдаты открыли огонь по участникам марша за права ирландцев, убив 13 демонстрантов и ранив 14. Это «кровавое воскресенье» разожгло огонь жесточайшей гражданской войны, длившейся 25 лет…-| IMDB | КиноПоиск |-Качество: DVDRip
    Формат: AVI
    Видео: 704x384 (1.83:1), 25 fps, XviD build 73 ~1829 kbps avg, 0.27 bit/pixel
    Аудио: 48 kHz, AC3 Dolby Digital, 2/0 (L,R) ch, ~192.00 kbps avg



    Complete name                            : D:\Krovavoe_voskresenie_2001_DVDRip_by_Dalemake.avi
    Format                                   : AVI
    Format/Info                              : Audio Video Interleave
    File size                                : 1.46 GiB
    Duration                                 : 1h 42mn
    Overall bit rate                         : 2 032 Kbps
    Writing application                      : VirtualDubMod | || (build 2550/release)
    Writing library                          : VirtualDubMod build 2550/release
    ID                                       : 0
    Format                                   : MPEG-4 Visual
    Format profile                           : Advanced Simple@L5
    Format settings, BVOP                    : 1
    Format settings, QPel                    : No
    Format settings, GMC                     : No warppoints
    Format settings, Matrix                  : Custom
    Codec ID                                 : XVID
    Codec ID/Hint                            : XviD
    Duration                                 : 1h 42mn
    Bit rate                                 : 1 830 Kbps
    Width                                    : 704 pixels
    Height                                   : 384 pixels
    Display aspect ratio                     : 1.85:1
    Frame rate                               : 25.000 fps
    Color space                              : YUV
    Chroma subsampling                       : 4:2:0
    Bit depth                                : 8 bits
    Scan type                                : Progressive
    Compression mode                         : Lossy
    Bits/(Pixel*Frame)                       : 0.271
    Stream size                              : 1.31 GiB (90%)
    Writing library                          : XviD 73
    ID                                       : 1
    Format                                   : AC-3
    Format/Info                              : Audio Coding 3
    Mode extension                           : CM (complete main)
    Format settings, Endianness              : Big
    Codec ID                                 : 2000
    Duration                                 : 1h 42mn
    Bit rate mode                            : Constant
    Bit rate                                 : 192 Kbps
    Channel(s)                               : 2 channels
    Channel positions                        : Front: L R
    Sampling rate                            : 48.0 KHz
    Bit depth                                : 16 bits
    Compression mode                         : Lossy
    Stream size                              : 141 MiB (9%)
    Alignment                                : Split accross interleaves
    Interleave, duration                     : 40 ms (1.00 video frame)
    Interleave, preload duration             : 500 ms
    Download .torrent

    Download free and at maximum speed!

    How to Download? · What is a torrent? · Ratings and Limitations

    The site does not extend and does not store electronic(digital) versions of products, and only gives access to a reference catalogue created by users on torrent-files which contain only lists of the hash-sums, the earnest entreaty, with complaints(abuse) to access directly to the user. Files for an exchange on tracker are given by users of a site, and the administration does not bear the responsibility for their maintenance. The request to not fill in the files protected by copyrights, and also files of the illegal maintenance!

    [Profile] [PM]
    Display posts from previous:    
    Reply to topic

    The time now is: Today 15:59

    All times are GMT + 3 Hours

    You cannot post new topics in this forum
    You cannot reply to topics in this forum
    You cannot edit your posts in this forum
    You cannot delete your posts in this forum
    You cannot vote in polls in this forum
    You cannot attach files in this forum
    You cannot download files in this forum