Register  ·  Log in
Forgot password?

  • В диких условиях / Into the Wild (Шон Пенн / Sean Penn) [2007, США, Драма, приключения, биография, BDRip] DVO (НТВ+)

    Reply to topic
    Author Message


    Post 03-Nov-2013 13:31



    В диких условиях / Into the Wild-Год выпуска: 2007
    Выпущено: США / Paramount Vantage, Art Linson Productions
    Жанр: драма, приключения, биография
    Продолжительность: 02:28:07
    Перевод: Профессиональный (двухголосый закадровый) НТВ+
    Cубтитры: нет-Режиссер:
    Шон Пенн / Sean Penn-В ролях:
    Эмиль Хирш (Chris McCandless), Хэл Холбрук (Ron Franz), Марша Гей Харден (Billie McCandless), Уильям Хёрт (Walt McCandless), Джена Мэлоун (Carine McCandless / Additional рассказчик), Брайан Х. Дьеркер (Rainey), Кэтрин Кинер (Jan Burres), Винс Вон (Wayne Westerberg), Кристен Стюарт (Tracy Tatro)-Описание:
    После окончания колледжа Эмори один из его ведущих студентов и атлетов Кристофер МакКэндлесс оставляет все свое имущество, отдает накопленные за время учебы 24 тыс. долларов в благотворительный фонд, и отправляется автостопом на Аляску, чтобы окунуться в дикую природу. По дороге Кристофер знакомится с разными людьми, так или иначе влияющими на его жизнь.-IMDB | КиноПоиск |-Качество: BDRip
    Формат: AVI
    Видео: 720x304 (2.37:1), 23.976 fps, XviD build 73 ~1211 kbps avg, 0.23 bit/pixel
    Аудио: 48 kHz, AC3 Dolby Digital, 2/0 (L,R) ch, ~192.00 kbps avg



    Complete name                            : D:\V_dikih_usloviyah_2007_BDRip_by_Dalemake.avi
    Format                                   : AVI
    Format/Info                              : Audio Video Interleave
    File size                                : 1.46 GiB
    Duration                                 : 2h 28mn
    Overall bit rate                         : 1 413 Kbps
    Writing application                      : VirtualDubMod | || (build 2550/release)
    Writing library                          : VirtualDubMod build 2550/release
    ID                                       : 0
    Format                                   : MPEG-4 Visual
    Format profile                           : Advanced Simple@L5
    Format settings, BVOP                    : 1
    Format settings, QPel                    : No
    Format settings, GMC                     : No warppoints
    Format settings, Matrix                  : Custom
    Codec ID                                 : XVID
    Codec ID/Hint                            : XviD
    Duration                                 : 2h 28mn
    Bit rate                                 : 1 211 Kbps
    Width                                    : 720 pixels
    Height                                   : 304 pixels
    Display aspect ratio                     : 2.35:1
    Frame rate                               : 23.976 fps
    Color space                              : YUV
    Chroma subsampling                       : 4:2:0
    Bit depth                                : 8 bits
    Scan type                                : Progressive
    Compression mode                         : Lossy
    Bits/(Pixel*Frame)                       : 0.231
    Stream size                              : 1.25 GiB (86%)
    Writing library                          : XviD 73
    ID                                       : 1
    Format                                   : AC-3
    Format/Info                              : Audio Coding 3
    Mode extension                           : CM (complete main)
    Format settings, Endianness              : Big
    Codec ID                                 : 2000
    Duration                                 : 2h 27mn
    Bit rate mode                            : Constant
    Bit rate                                 : 192 Kbps
    Channel(s)                               : 2 channels
    Channel positions                        : Front: L R
    Sampling rate                            : 48.0 KHz
    Bit depth                                : 16 bits
    Compression mode                         : Lossy
    Stream size                              : 203 MiB (14%)
    Alignment                                : Split accross interleaves
    Interleave, duration                     : 42 ms (1.00 video frame)
    Interleave, preload duration             : 500 ms
    Download .torrent

    Download free and at maximum speed!

    How to Download? · What is a torrent? · Ratings and Limitations

    The site does not extend and does not store electronic(digital) versions of products, and only gives access to a reference catalogue created by users on torrent-files which contain only lists of the hash-sums, the earnest entreaty, with complaints(abuse) to access directly to the user. Files for an exchange on tracker are given by users of a site, and the administration does not bear the responsibility for their maintenance. The request to not fill in the files protected by copyrights, and also files of the illegal maintenance!

    [Profile] [PM]
    Display posts from previous:    
    Reply to topic

    The time now is: Today 11:38

    All times are GMT + 3 Hours

    You cannot post new topics in this forum
    You cannot reply to topics in this forum
    You cannot edit your posts in this forum
    You cannot delete your posts in this forum
    You cannot vote in polls in this forum
    You cannot attach files in this forum
    You cannot download files in this forum