BitTorrentTracker PerecTracker.org
BitTorrentTracker PerecTracker.org
    
Регистрация  ·  Вход
 
 · 
Забыли пароль?

  • Последнее метро / Le dernier metro (Франсуа Трюффо / Francois Truffaut) [1980, Франция, драма, HDRip] MVO (Домашний) + MVO (Кармен Видео) + Sub Rus + Original Fre

    Ответить на тему
     
    Автор Сообщение

    Columb

    Создавать темы 03-Ноя-2013 12:26

           

    [Цитировать]

    Последнее метро / Le dernier metro
    Страна: Франция
    Жанр: драма
    Год выпуска: 1980
    Продолжительность: 02:12:08
    Перевод 1: Профессиональный (многоголосый закадровый) Домашний
    Перевод 2: Профессиональный (многоголосый закадровый) Кармен Видео
    Cубтитры: русские
    Оригинальная аудиодорожка: французский
    Режиссер: Франсуа Трюффо / Francois Truffaut
    В ролях: Катрин Денев, Хайнц Беннент, Жерар Депардье, Андреа Ферреоль, Жан-Луи Ришар, Жан Пуаре, Полетт Дюбо, Сабин Одепен, Морис Риш
    Описание: Вторая Мировая. Оккупированный Париж. Общество расколото на молчаливое большинство, невидимых партизан, открытых коллаборационистов — и жертв режима, скрывающихся от нацистской расправы. К последним относится еврей Жан-Лу Коттен, театральный режиссер и муж ведущей актрисы — Марион Штайнер.
    С риском для себя и всего коллектива Марион решает спрятать мужа в подвале театра, откуда Жан-Лу продолжает вдохновенно, через жену, готовить новую премьеру.
    На Марион тем временем ложится одна забота за другой: тайно носить еду в подвал (что в условиях тотального доносительства превращается в целое искусство); распространять слухи, что ее муж сбежал из города; аккуратно сдерживать натиск влиятельного немецкого ухажера… Вдобавок Марион увлекается коллегой — актером Бернаром…
    Доп. информация: На Домашнем вырезали пару фраз - на них сделаны вставки из дорожки Кармен Видео
    Качество видео: HDRip
    Формат видео: AVI
    Видео: MPEG4, XviD, 720x432 (1.667), 23.976 fps, 1 778 Kbps (0.238 bit/pixel)
    Аудио 1: AC-3, 48.0 KHz, 2 ch, 192 Kbps, CBR - Домашний
    Аудио 2: AC-3, 48.0 KHz, 2 ch, 192 Kbps, CBR - Кармен Видео
    Аудио 3: AC-3, 48.0 KHz, 1 ch, 192 Kbps, CBR - французский

    MediaInfo

    Общее
    Полное имя : K:\Последнее метро.avi
    Формат : AVI
    Формат/Информация : Audio Video Interleave
    Профиль формата : OpenDML
    Размер файла : 2,19 Гбайт
    Продолжительность : 2 ч. 12 м.
    Общий поток : 2378 Кбит/сек
    Название фильма : Последнее метро / Le dernier metro (1980)
    Режиссёр : miha2154
    Программа кодирования : VirtualDubMod 1.5.10.2 (build 2540/release)
    Библиотека кодирования : VirtualDubMod build 2540/release
    Правообладатель : специально для BitTorrent трекер RuTracker.org (ex torrents.ru)
    Видео
    Идентификатор : 0
    Формат : MPEG-4 Visual
    Профиль формата : Advanced Simple@L5
    Параметр BVOP формата : 2
    Параметр QPel формата : Нет
    Параметр GMC формата : Без точки перехода
    Параметр матрицы формата : Default (MPEG)
    Идентификатор кодека : XVID
    Идентификатор кодека/Подсказка : XviD
    Продолжительность : 2 ч. 12 м.
    Битрейт : 1778 Кбит/сек
    Ширина : 720 пикселей
    Высота : 432 пикселя
    Соотношение сторон : 1,667
    Частота кадров : 23,976 кадра/сек
    Цветовое пространство : YUV
    Субдискретизация насыщенности : 4:2:0
    Битовая глубина : 8 бит
    Тип развёртки : Прогрессивная
    Метод сжатия : С потерями
    Бит/(Пиксели*Кадры) : 0.238
    Размер потока : 1,64 Гбайт (75%)
    Библиотека кодирования : XviD 1.1.0 (UTC 2005-11-22)
    Аудио #1
    Идентификатор : 1
    Формат : AC-3
    Формат/Информация : Audio Coding 3
    Расширение режима : CM (complete main)
    Параметр Endianness формата : Big
    Идентификатор кодека : 2000
    Продолжительность : 2 ч. 12 м.
    Вид битрейта : Постоянный
    Битрейт : 192 Кбит/сек
    Каналы : 2 канала
    Расположение каналов : Front: L R
    Частота : 48,0 КГц
    Битовая глубина : 16 бит
    Метод сжатия : С потерями
    Размер потока : 181 Мбайт (8%)
    Выравнивание : Разделение по промежуткам
    Продолжительность промежутка : 42 мс. (1,00 видеокадр)
    Время предзагрузки промежутка : 500 мс.
    Заголовок : Профессиональный (многоголосый закадровый) Домашний
    Аудио #2
    Идентификатор : 2
    Формат : AC-3
    Формат/Информация : Audio Coding 3
    Расширение режима : CM (complete main)
    Параметр Endianness формата : Big
    Идентификатор кодека : 2000
    Продолжительность : 2 ч. 12 м.
    Вид битрейта : Постоянный
    Битрейт : 192 Кбит/сек
    Каналы : 2 канала
    Расположение каналов : Front: L R
    Частота : 48,0 КГц
    Битовая глубина : 16 бит
    Метод сжатия : С потерями
    Размер потока : 181 Мбайт (8%)
    Выравнивание : Разделение по промежуткам
    Продолжительность промежутка : 42 мс. (1,00 видеокадр)
    Время предзагрузки промежутка : 500 мс.
    Заголовок : Профессиональный (многоголосый закадровый) Кармен Видео
    Аудио #3
    Идентификатор : 3
    Формат : AC-3
    Формат/Информация : Audio Coding 3
    Расширение режима : CM (complete main)
    Параметр Endianness формата : Big
    Идентификатор кодека : 2000
    Продолжительность : 2 ч. 12 м.
    Вид битрейта : Постоянный
    Битрейт : 192 Кбит/сек
    Каналы : 1 канал
    Расположение каналов : Front: C
    Частота : 48,0 КГц
    Битовая глубина : 16 бит
    Метод сжатия : С потерями
    Размер потока : 181 Мбайт (8%)
    Выравнивание : Разделение по промежуткам
    Продолжительность промежутка : 42 мс. (1,00 видеокадр)
    Время предзагрузки промежутка : 500 мс.
    Заголовок : Французский

    Скриншоты


    Скачать .torrent

    Скачать торрент-файл бесплатно и на максимальной скорости!

    Как скачивать? · Что такое торрент? · Рейтинг и ограничения

    !ВНИМАНИЕ!
    Сайт не распространяет и не хранит электронные версии произведений, а занимается лишь лишь предоставлением доступа к создаваемому пользователями каталогу ссылок на торрент-файлы, которые содержат только списки хеш-сумм, убедительная просьба с жалобами обращаться напрямую к пользователю. Файлы для обмена на трекере предоставлены пользователями сайта, и администрация не несёт ответственности за их содержание. Просьба не заливать файлы, защищенные авторскими правами, а также файлы нелегального содержания!

    [Профиль] [ЛС]
    Показать сообщения:    
    Ответить на тему

    Текущее время: Сегодня, в 14:57

    Часовой пояс: GMT + 2



    Вы не можете начинать темы
    Вы не можете отвечать на сообщения
    Вы не можете редактировать свои сообщения
    Вы не можете удалять свои сообщения
    Вы не можете голосовать в опросах
    Вы не можете прикреплять файлы к сообщениям
    Вы не можете скачивать файлы