BitTorrentTracker PerecTracker.org
BitTorrentTracker PerecTracker.org
    
Регистрация  ·  Вход
 
 · 
Забыли пароль?

  • Виртуозность / Виртуальность / Убийца виртуоз / Virtuosity (Бретт Леонард / Brett Leonard) [1995, США, фантастика, боевик, триллер, криминал, BDRip-AVC] MVO (СТС) + AVO (Ю.Живов) + 2xDVO (НТВ+, NORD) + Original Eng + Sub Eng

    Ответить на тему
     
    Автор Сообщение

    Columb

    Создавать темы 03-Ноя-2013 12:23

           

    [Цитировать]

    Виртуозность / Виртуальность / Убийца виртуоз / Virtuosity«Justice needs a new program»-Страна: США | Paramount Pictures
    Жанр: фантастика, боевик, триллер, криминал
    Год выпуска: 1995
    Продолжительность: 01:45:53-Перевод: Профессиональный многоголосый закадровый СТС
    + Авторский одноголосый закадровый Ю.Живов
    + Оригинал English
    + Профессиональный двухголосый закадровый НТВ+ - отдельно в раздаче
    + Профессиональный двухголосый закадровый NORD - отдельно в раздаче
    Cубтитры: Английские-Режиссер: Бретт Леонард / Brett Leonard
    В ролях: Уильям Файтнер, Расселл Кроу, Дэнзел Вашингтон, Уильям Форсайт, Кевин Дж. О'Коннор, Луиз Флетчер, Костас Мэндилор, Стивен Спинелла, Келли Линч- -Описание: Его имя Сид 6.7. Он создан из двухсот отборных подонков, негодяев и психопатов, наделен интеллектом и хитростью самых знаменитых серийных убийц в истории человечества.
    Сид 6,7 был специально придуман, как совершенное воплощение зла и жестокости, для особой компьютерной программы, помогающей полицейским ловить преступников. Но случилось непоправимое.
    Сиду удалось сбежать из кибернетического пространства в реальный мир. Идеальный преступник был на свободе и жаждал преподать людям страшный урок…
    Единственным человеком, который встал на пути компьютерного садиста, оказался полицейский по имени Паркер Барнис. Но офицеру Барнису всегда приходилось иметь дело с бандитами из плоти и крови. Сможет ли он совладать с неуязвимым Сидом 6,7?-Качество видео: BDRip-AVC | исх. BDRemux 1080p | Сэмпл
    Формат видео: MKV-Видео: 1152x492 (2.35:1), 23.976 fps, AVC ~4 358 kbps avg, 0.321 bit/pixel
    Аудио 1: 48 kHz, AC3 Dolby Digital, 2/0 (L,C) ch, 192.00 kbps | Профессиональный многоголосый закадровый СТС
    Аудио 2: 48 kHz, AC3 Dolby Digital, 3/2 (L,C,R,l,r) + LFE ch, ~448.00 kbps avg | Авторский одноголосый закадровый Ю.Живов
    Аудио 3: 48 kHz, AC3 Dolby Digital, 3/2 (L,C,R,l,r) + LFE ch, ~448.00 kbps avg | Оригинал English
    Аудио 4: 48 kHz, AC3 Dolby Digital, 2/0 (L,C) ch, 192.00 kbps | Профессиональный двухголосый закадровый НТВ+ - отдельно в раздаче
    Аудио 5: 48 kHz, AC3 Dolby Digital, 2/0 (L,C) ch, 192.00 kbps | Профессиональный двухголосый закадровый NORD - отдельно в раздаче-Формат субтитров: softsub (srt)
    Главы: есть-

    Дополнительно

    • Ю.Живов взят у formally, автору большое спасибо. Проведена синхронизация, на пропуски вставлен оригинал, мест без перевода нет спасибо GansAn
    • Многоголосые переводы взяты у tеko за что авторам и ему большое спасибо

    MediaInfo | x264

    x264

    x264 [info]: frame I:1064 Avg QP:17.66 size: 74666
    x264 [info]: frame P:34659 Avg QP:19.03 size: 37473
    x264 [info]: frame B:116622 Avg QP:20.43 size: 18601
    x264 [info]: consecutive B-frames: 2.4% 3.4% 8.7% 24.2% 18.8% 32.7% 4.9% 2.5% 0.7% 0.5% 0.3% 0.3% 0.1% 0.2% 0.1% 0.1% 0.1%
    x264 [info]: mb I I16..4: 4.5% 82.8% 12.7%
    x264 [info]: mb P I16..4: 0.7% 16.4% 1.4% P16..4: 28.9% 35.3% 11.9% 1.1% 0.1% skip: 4.1%
    x264 [info]: mb B I16..4: 0.1% 1.9% 0.1% B16..8: 38.2% 24.7% 4.8% direct:10.5% skip:19.7% L0:45.4% L1:42.3% BI:12.4%
    x264 [info]: 8x8 transform intra:88.2% inter:65.6%
    x264 [info]: direct mvs spatial:99.9% temporal:0.1%
    x264 [info]: coded y,uvDC,uvAC intra: 94.0% 96.1% 88.9% inter: 43.4% 54.7% 31.6%
    x264 [info]: i16 v,h,dc,p: 28% 19% 4% 49%
    x264 [info]: i8 v,h,dc,ddl,ddr,vr,hd,vl,hu: 6% 6% 5% 12% 17% 15% 15% 12% 13%
    x264 [info]: i4 v,h,dc,ddl,ddr,vr,hd,vl,hu: 9% 8% 3% 9% 16% 15% 15% 12% 13%
    x264 [info]: i8c dc,h,v,p: 53% 15% 13% 20%
    x264 [info]: Weighted P-Frames: Y:8.7% UV:5.6%
    x264 [info]: ref P L0: 39.3% 10.2% 18.7% 7.2% 6.0% 4.1% 3.8% 2.1% 2.0% 1.5% 1.5% 1.2% 1.2% 1.1% 0.3% 0.1%
    x264 [info]: ref B L0: 66.6% 13.2% 6.4% 3.6% 2.5% 2.1% 1.6% 1.1% 0.9% 0.8% 0.6% 0.4% 0.2%
    x264 [info]: ref B L1: 92.4% 7.6%
    x264 [info]: kb/s:4358.50
    x264 [total]: encoded 152345 frames, 8.23 fps, 4358.50 kb/s
    General
    Unique ID : 199013753666666885316151608213441699533 (0x95B8A79DE716DF24B1AAB54BD3C95ECD)
    Complete name : D:\Фильмы\Рипы\Virtuosity.1995.BDRip-AVC.Fredd Kruger\Virtuosity.1995.BDRip-AVC.Fredd Kruger.mkv
    Format : Matroska
    Format version : Version 2
    File size : 4.11 GiB
    Duration : 1h 45mn
    Overall bit rate : 5 557 Kbps
    Encoded date : UTC 2013-11-02 11:17:17
    Writing application : mkvmerge v5.0.1 ('Es ist Sommer') built on Nov 6 2011 16:23:40
    Writing library : libebml v1.2.2 + libmatroska v1.3.0
    Video
    ID : 1
    Format : AVC
    Format/Info : Advanced Video Codec
    Format profile : High@L4.0
    Format settings, CABAC : Yes
    Format settings, ReFrames : 14 frames
    Codec ID : V_MPEG4/ISO/AVC
    Duration : 1h 45mn
    Bit rate : 4 358 Kbps
    Width : 1 152 pixels
    Height : 492 pixels
    Display aspect ratio : 2.35:1
    Frame rate mode : Constant
    Frame rate : 23.976 fps
    Color space : YUV
    Chroma subsampling : 4:2:0
    Bit depth : 8 bits
    Scan type : Progressive
    Bits/(Pixel*Frame) : 0.321
    Stream size : 3.22 GiB (78%)
    Title : Encode by Fredd Kruger
    Writing library : x264 core 138 r2358kMod 9e941d1
    Encoding settings : cabac=1 / ref=14 / deblock=1:-3:-3 / analyse=0x3:0x133 / me=umh / subme=11 / psy=1 / fade_compensate=0.00 / psy_rd=1.05:0.00 / mixed_ref=1 / me_range=48 / chroma_me=1 / trellis=2 / 8x8dct=1 / cqm=0 / deadzone=21,11 / fast_pskip=1 / chroma_qp_offset=-4 / threads=12 / lookahead_threads=3 / sliced_threads=0 / nr=0 / decimate=1 / interlaced=0 / bluray_compat=0 / constrained_intra=0 / bframes=16 / b_pyramid=2 / b_adapt=2 / b_bias=0 / direct=3 / weightb=1 / open_gop=0 / weightp=2 / keyint=250 / keyint_min=23 / scenecut=40 / intra_refresh=0 / rc_lookahead=60 / rc=crf / mbtree=0 / crf=19.0000 / qcomp=0.60 / qpmin=0 / qpmax=69 / qpstep=4 / vbv_maxrate=25000 / vbv_bufsize=31250 / crf_max=0.0 / nal_hrd=none / ip_ratio=1.30 / pb_ratio=1.20 / aq=3:0.85
    Language : English
    Default : Yes
    Forced : No
    Matrix coefficients : BT.709
    Audio #1
    ID : 2
    Format : AC-3
    Format/Info : Audio Coding 3
    Mode extension : CM (complete main)
    Format settings, Endianness : Big
    Codec ID : A_AC3
    Duration : 1h 45mn
    Bit rate mode : Constant
    Bit rate : 192 Kbps
    Channel(s) : 2 channels
    Channel positions : Front: L R
    Sampling rate : 48.0 KHz
    Bit depth : 16 bits
    Compression mode : Lossy
    Stream size : 145 MiB (3%)
    Title : STS
    Language : Russian
    Default : Yes
    Forced : Yes
    Audio #2
    ID : 3
    Format : AC-3
    Format/Info : Audio Coding 3
    Mode extension : CM (complete main)
    Format settings, Endianness : Big
    Codec ID : A_AC3
    Duration : 1h 45mn
    Bit rate mode : Constant
    Bit rate : 448 Kbps
    Channel(s) : 6 channels
    Channel positions : Front: L C R, Side: L R, LFE
    Sampling rate : 48.0 KHz
    Bit depth : 16 bits
    Compression mode : Lossy
    Stream size : 339 MiB (8%)
    Title : Jivov
    Language : Russian
    Default : No
    Forced : No
    Audio #3
    ID : 4
    Format : AC-3
    Format/Info : Audio Coding 3
    Mode extension : CM (complete main)
    Format settings, Endianness : Big
    Codec ID : A_AC3
    Duration : 1h 45mn
    Bit rate mode : Constant
    Bit rate : 448 Kbps
    Channel(s) : 6 channels
    Channel positions : Front: L C R, Side: L R, LFE
    Sampling rate : 48.0 KHz
    Bit depth : 16 bits
    Compression mode : Lossy
    Stream size : 339 MiB (8%)
    Language : English
    Default : No
    Forced : No
    Text
    ID : 5
    Format : UTF-8
    Codec ID : S_TEXT/UTF8
    Codec ID/Info : UTF-8 Plain Text
    Language : English
    Default : No
    Forced : No
    Menu
    00:00:00.000 : en:Chapter 01
    00:07:48.843 : en:Chapter 02
    00:12:16.235 : en:Chapter 03
    00:16:12.596 : en:Chapter 04
    00:18:01.371 : en:Chapter 05
    00:21:19.194 : en:Chapter 06
    00:25:11.384 : en:Chapter 07
    00:31:30.930 : en:Chapter 08
    00:35:41.472 : en:Chapter 09
    00:40:19.250 : en:Chapter 10
    00:48:51.136 : en:Chapter 11
    00:52:28.061 : en:Chapter 12
    00:56:36.518 : en:Chapter 13
    01:02:41.883 : en:Chapter 14
    01:06:55.136 : en:Chapter 15
    01:12:33.849 : en:Chapter 16
    01:20:54.516 : en:Chapter 17
    01:27:40.380 : en:Chapter 18
    01:32:57.071 : en:Chapter 19
    01:38:44.877 : en:Chapter 20

    Скриншоты

    Скачать .torrent

    Скачать торрент-файл бесплатно и на максимальной скорости!

    Как скачивать? · Что такое торрент? · Рейтинг и ограничения

    !ВНИМАНИЕ!
    Сайт не распространяет и не хранит электронные версии произведений, а занимается лишь лишь предоставлением доступа к создаваемому пользователями каталогу ссылок на торрент-файлы, которые содержат только списки хеш-сумм, убедительная просьба с жалобами обращаться напрямую к пользователю. Файлы для обмена на трекере предоставлены пользователями сайта, и администрация не несёт ответственности за их содержание. Просьба не заливать файлы, защищенные авторскими правами, а также файлы нелегального содержания!

    [Профиль] [ЛС]
    Показать сообщения:    
    Ответить на тему

    Текущее время: Сегодня, в 08:30

    Часовой пояс: GMT + 2



    Вы не можете начинать темы
    Вы не можете отвечать на сообщения
    Вы не можете редактировать свои сообщения
    Вы не можете удалять свои сообщения
    Вы не можете голосовать в опросах
    Вы не можете прикреплять файлы к сообщениям
    Вы не можете скачивать файлы