BitTorrentTracker PerecTracker.org
BitTorrentTracker PerecTracker.org
    
Регистрация  ·  Вход
 
 · 
Забыли пароль?

  • Ураган / Windfall (Джерри Лайвли / Gerry Lively) [2002, США, боевик, DVDRip] MVO (Союз Видео)

    Ответить на тему
     
    Автор Сообщение

    Columb

    Создавать темы 02-Ноя-2013 13:38

           

    [Цитировать]

    Ураган / Windfall
    Страна: США
    Жанр: боевик
    Год выпуска: 2002
    Продолжительность: 01:41:59
    Перевод: Профессиональный (многоголосый закадровый) Союз Видео
    Cубтитры: нет
    Оригинальная аудиодорожка: нет
    Режиссер: Джерри Лайвли / Gerry Lively
    В ролях: Каспер Ван Дин, Грегг Генри, Либби Хадсон, Роберт Инглунд, Рэй Уайз, Сирил О’Райлли
    Описание: Для двух удачливых воров — Эйса Логана и его напарника Скрэтча — профессиональная репутация гораздо важнее денег. Казино «Гранд Роял», оборудованное охранными системами по последнему слову техники — идеальное место, чтобы показать свое «мастерство».
    Однако удача в этот раз отворачивается от Эйса — в самый последний момент охрана успевает схватить их на месте преступления. Восхищённый ловкостью и прытью двух друзей, владелец казино предлагает им выбор: тюремная роба или форма охранника казино. Кто бы мог предположить, что из бывших грабителей получатся отменные секьюрити?
    Во время урагана, обрушившегося на город и сметающего всё на своем пути, они, рискуя жизнью, пытаются спасти невинных людей и предотвратить самое громкое ограбление казино за всю его историю.
    Доп. информация:
    За звуковую дорожку с лицензионной VHS от Союз Видео благодарим Fikaloid.
    За синхронизацию звуковой дорожки большая благодарность JUSTKANT.
    Сэмпл: http://multi-up.com/919306
    Качество видео: DVDRip
    Формат видео: AVI
    Видео: 720x544, 23.976 fps, MPEG-4 Visual, 1 743 Kbps
    Аудио: 48 KHz, AC3, 2 ch, 192 Kbps

    MediaInfo

    General
    Complete name : G:\Кино\Ураган.avi
    Format : AVI
    Format/Info : Audio Video Interleave
    File size : 1.39 GiB
    Duration : 1h 41mn
    Overall bit rate : 1 944 Kbps
    Video
    ID : 0
    Format : MPEG-4 Visual
    Format profile : Advanced Simple@L5
    Format settings, BVOP : 1
    Format settings, QPel : No
    Format settings, GMC : No warppoints
    Format settings, Matrix : Default (H.263)
    Codec ID : XVID
    Codec ID/Hint : XviD
    Duration : 1h 41mn
    Bit rate : 1 743 Kbps
    Width : 720 pixels
    Height : 544 pixels
    Display aspect ratio : 4:3
    Frame rate : 23.976 fps
    Color space : YUV
    Chroma subsampling : 4:2:0
    Bit depth : 8 bits
    Scan type : Progressive
    Compression mode : Lossy
    Bits/(Pixel*Frame) : 0.186
    Stream size : 1.24 GiB (90%)
    Writing library : XviD 1.2.0.dev47 (UTC 2006-11-01)
    Audio
    ID : 1
    Format : AC-3
    Format/Info : Audio Coding 3
    Mode extension : CM (complete main)
    Format settings, Endianness : Big
    Codec ID : 2000
    Duration : 1h 41mn
    Bit rate mode : Constant
    Bit rate : 192 Kbps
    Channel(s) : 2 channels
    Channel positions : Front: L R
    Sampling rate : 48.0 KHz
    Bit depth : 16 bits
    Compression mode : Lossy
    Stream size : 140 MiB (10%)
    Alignment : Split accross interleaves
    Interleave, duration : 42 ms (1.00 video frame)
    Interleave, preload duration : 500 ms

    Скриншот c названием фильма

    Скриншоты

    Скачать .torrent

    Скачать торрент-файл бесплатно и на максимальной скорости!

    Как скачивать? · Что такое торрент? · Рейтинг и ограничения

    !ВНИМАНИЕ!
    Сайт не распространяет и не хранит электронные версии произведений, а занимается лишь лишь предоставлением доступа к создаваемому пользователями каталогу ссылок на торрент-файлы, которые содержат только списки хеш-сумм, убедительная просьба с жалобами обращаться напрямую к пользователю. Файлы для обмена на трекере предоставлены пользователями сайта, и администрация не несёт ответственности за их содержание. Просьба не заливать файлы, защищенные авторскими правами, а также файлы нелегального содержания!

    [Профиль] [ЛС]
    Показать сообщения:    
    Ответить на тему

    Текущее время: Сегодня, в 18:07

    Часовой пояс: GMT + 2



    Вы не можете начинать темы
    Вы не можете отвечать на сообщения
    Вы не можете редактировать свои сообщения
    Вы не можете удалять свои сообщения
    Вы не можете голосовать в опросах
    Вы не можете прикреплять файлы к сообщениям
    Вы не можете скачивать файлы