BitTorrentTracker PerecTracker.org
BitTorrentTracker PerecTracker.org
    
Регистрация  ·  Вход
 
 · 
Забыли пароль?

  • Перси Джексон и Море чудовищ / Percy Jackson: Sea of Monsters (Тор Фройденталь / Thor Freudenthal) [2013, США, фэнтези, приключения, семейный, WEB-DLRip] Dub (звук с TS)

    Ответить на тему
     
    Автор Сообщение

    Columb

    Создавать темы 02-Ноя-2013 13:36

           

    [Цитировать]

    Перси Джексон и Море чудовищ
    Percy Jackson: Sea of Monsters
    --Страна: США
    Жанр: фэнтези, приключения, семейный
    Год выпуска: 2013
    Продолжительность: 01:46:30--Перевод: Профессиональный (дублированный) [звук с TS]
    Cубтитры: нет
    Оригинальная аудиодорожка: нет--Режиссер: Тор Фройденталь / Thor Freudenthal--В ролях: Логан Лерман, Александра Даддарио, Дуглас Смит, Ливэн Рамбин, Брэндон Т. Джексон, Джейк Эйбел, Энтони Хэд, Стэнли Туччи, Коннор Крэш Данн, Палома Квиатковски--Описание: Лагерь полукровок атакует Люк Кастеллан, который раскрывает свои планы по уничтожению горы Олимп. Наставник Перси, Хирон узнает, что Люк отравил волшебное дерево, которое отвечает за барьер, защищающий Лагерь Полукровок, и которое создано из Талии Грейс, дочери Зевса, убитой циклопом. Аннабет Чейз выясняет, что Золотое Руно может восстановить дерево, и директор лагеря, Дионис, посылает Клариссу Ла Ру, дочь Ареса и соперницу Перси, найти его…
    --Сэмпл
    Качество видео: WEB-DLRip
    Формат видео: AVI
    Видео: Xvid 720x304 23.976fps 1762Kbps
    Аудио: MP3 48000Hz stereo 192kbps--

    MediaInfo

    General
    Complete name                  : D:\TORRENTS\Persi.Djekson.i.more.chudovish.2013.Dt.WEB-DLRip.1.46GB.avi
    Format                         : AVI
    Format/Info                    : Audio Video Interleave
    File size                      : 1.46 GiB
    Duration                       : 1h 46mn
    Overall bit rate               : 1 962 Kbps
    Writing application            : VirtualDubMod 1.5.10.2 (build 2540/release)
    Writing library                : VirtualDubMod build 2540/release
    Video
    ID                             : 0
    Format                         : MPEG-4 Visual
    Format profile                 : Advanced Simple@L5
    Format settings, BVOP          : Yes
    Format settings, QPel          : No
    Format settings, GMC           : No warppoints
    Format settings, Matrix        : Custom
    Codec ID                       : XVID
    Codec ID/Hint                  : XviD
    Duration                       : 1h 46mn
    Bit rate                       : 1 762 Kbps
    Width                          : 720 pixels
    Height                         : 304 pixels
    Display aspect ratio           : 2.35:1
    Frame rate                     : 23.976 fps
    Color space                    : YUV
    Chroma subsampling             : 4:2:0
    Bit depth                      : 8 bits
    Scan type                      : Progressive
    Compression mode               : Lossy
    Bits/(Pixel*Frame)             : 0.336
    Stream size                    : 1.31 GiB (90%)
    Writing library                : XviD 1.2.1 (UTC 2008-12-04)
    Audio
    ID                             : 1
    Format                         : MPEG Audio
    Format version                 : Version 1
    Format profile                 : Layer 3
    Mode                           : Joint stereo
    Mode extension                 : MS Stereo
    Codec ID                       : 55
    Codec ID/Hint                  : MP3
    Duration                       : 1h 46mn
    Bit rate mode                  : Constant
    Bit rate                       : 192 Kbps
    Channel count                  : 2 channels
    Sampling rate                  : 48.0 KHz
    Compression mode               : Lossy
    Stream size                    : 146 MiB (10%)
    Alignment                      : Aligned on interleaves
    Interleave, duration           : 42 ms (1.00 video frame)
    Interleave, preload duration   : 504 ms

    Скриншоты

    -
    --
    Скачать .torrent

    Скачать торрент-файл бесплатно и на максимальной скорости!

    Как скачивать? · Что такое торрент? · Рейтинг и ограничения

    !ВНИМАНИЕ!
    Сайт не распространяет и не хранит электронные версии произведений, а занимается лишь лишь предоставлением доступа к создаваемому пользователями каталогу ссылок на торрент-файлы, которые содержат только списки хеш-сумм, убедительная просьба с жалобами обращаться напрямую к пользователю. Файлы для обмена на трекере предоставлены пользователями сайта, и администрация не несёт ответственности за их содержание. Просьба не заливать файлы, защищенные авторскими правами, а также файлы нелегального содержания!

    [Профиль] [ЛС]

    -746

    Создавать темы 23-Ноя-2013 23:20 (спустя 21 день)

           

    Топик был перенесен из форума Горячие новинки 2013 в форум Зарубежные Фильмы (Новинки)

    -sasha2006 

    _________________
    Как бы ты высоко не летал, не забывай, с кем ты ползал..
     

    -746

    Создавать темы 12-Янв-2014 19:06 (спустя 2 месяца 10 дней)

           

    Топик был перенесен из форума Зарубежные Фильмы (Новинки) в форум Фильмы 2011-2013

    -sasha2006 

    _________________
    Как бы ты высоко не летал, не забывай, с кем ты ползал..
     
    Показать сообщения:    
    Ответить на тему

    Текущее время: Сегодня, в 22:38

    Часовой пояс: GMT + 2



    Вы не можете начинать темы
    Вы не можете отвечать на сообщения
    Вы не можете редактировать свои сообщения
    Вы не можете удалять свои сообщения
    Вы не можете голосовать в опросах
    Вы не можете прикреплять файлы к сообщениям
    Вы не можете скачивать файлы