BitTorrentTracker PerecTracker.org
BitTorrentTracker PerecTracker.org
    
Регистрация  ·  Вход
 
 · 
Забыли пароль?

  • Маленький магазинчик ужасов / Лавка ужасов / The Little Shop of Horrors (Роджер Корман / Roger Corman, Чарльз Б. Гриффит / Charles B. Griffith) [1960, США, фэнтези, комедия, BDRip] MVO (Петербург 5-й канал) + MVO (DVD Магия) + Original (Eng) [Color]

    Ответить на тему
     
    Автор Сообщение

    Columb

    Создавать темы 02-Ноя-2013 13:34

           

    [Цитировать]

    Маленький магазинчик ужасов / The Little Shop of Horrors
    Страна: США
    Жанр: фэнтези, комедия
    Год выпуска: 1960
    Продолжительность: 01:11:49
    Перевод: Профессиональный (многоголосый закадровый) Петербург 5-й канал, DVD Магия
    Субтитры: нет
    Оригинальная аудиодорожка: английский
    Режиссер: Роджер Корман / Roger Corman, Чарльз Б. Гриффит / Charles B. Griffith, Мэл Уэллс / Mel Welles
    В ролях: Джонатан Хэйз, Джеки Джозеф, Мэл Уэллс, Дик Миллер, Мертл Вэйл, Кэрин Купкинет, Тоби Майклс, Леола Вендорфф, Линн Стори, Уолли Кампо, Джек Уорфорд, Мери Уэллс, Джон Херман Шейнер, Джек Николсон, Доди Дрэйк
    Описание: Служащий цветочной лавочки встретил японца, который подарил ему диковинный цветок. Парень холил и лелеял его, пока однажды растение заговорило с ним человеческим голосом! Цветок потребовал еды, да не простой еды, а свежей человеческой плоти! Скоро этот монстр вырос до невообразимых размеров и стал пожирать случайных посетителей!
    Доп. информация:
    Качество видео: BDRip | Diablo/1080p BD-Remux
    Формат видео: AVI
    Видео: 704x528 (1.33:1), 23.976 fps, XviD build 73 ~2305 kbps avg, 0.26 bit/pixel
    Аудио: 48 kHz, AC3 Dolby Digital, 2/0 (L,R) ch, ~192 kbps Петербург 5-й канал
    Аудио 2: 48 kHz, AC3 Dolby Digital, 2/0 (L,R) ch, ~192 kbps DVD Магия
    Аудио 3: 48 kHz, AC3 Dolby Digital, 2/0 (L,R) ch, ~192 kbps оригинал

    MediaInfo

    Общее
    Полное имя : C:\Documents and Settings\Пользователь\Рабочий стол\Торрентс.ру\The.Little.Shop.of.Horrors.1960.BDRip.2xMVO.Eng_by_LBS.avi
    Формат : AVI
    Формат/Информация : Audio Video Interleave
    Размер файла : 1,46 Гбайт
    Продолжительность : 1 ч. 11 м.
    Общий поток : 2902 Кбит/сек
    Режиссёр : Last Boy Scout
    Программа кодирования : VirtualDubMod 1.5.10.3 | www.virtualdub-fr.org || (build 2550/release)
    Правообладатель : rutracker.org 02.11.2013
    Примечание : BDRip MVO (Петербург 5-й канал) + MVO (DVD Магия) + original (eng)
    Видео
    Идентификатор : 0
    Формат : MPEG-4 Visual
    Профиль формата : Advanced Simple@L5
    Параметр BVOP формата : 1
    Параметр QPel формата : Нет
    Параметр GMC формата : Без точки перехода
    Параметр матрицы формата : Выборочная
    Идентификатор кодека : XVID
    Идентификатор кодека/Подсказка : XviD
    Продолжительность : 1 ч. 11 м.
    Битрейт : 2306 Кбит/сек
    Ширина : 704 пикселя
    Высота : 528 пикселей
    Соотношение сторон : 4:3
    Частота кадров : 23,976 кадра/сек
    Цветовое пространство : YUV
    Субдискретизация насыщенности : 4:2:0
    Битовая глубина : 8 бит
    Тип развёртки : Прогрессивная
    Метод сжатия : С потерями
    Бит/(Пиксели*Кадры) : 0.259
    Размер потока : 1,16 Гбайт (79%)
    Библиотека кодирования : XviD 73
    Аудио #1
    Идентификатор : 1
    Формат : AC-3
    Формат/Информация : Audio Coding 3
    Расширение режима : CM (complete main)
    Параметр Endianness формата : Big
    Идентификатор кодека : 2000
    Продолжительность : 1 ч. 11 м.
    Вид битрейта : Постоянный
    Битрейт : 192 Кбит/сек
    Каналы : 2 канала
    Расположение каналов : Front: L R
    Частота : 48,0 КГц
    Битовая глубина : 16 бит
    Метод сжатия : С потерями
    Размер потока : 98,6 Мбайт (7%)
    Выравнивание : Разделение по промежуткам
    Продолжительность промежутка : 42 мс. (1,00 видеокадр)
    Время предзагрузки промежутка : 500 мс.
    Аудио #2
    Идентификатор : 2
    Формат : AC-3
    Формат/Информация : Audio Coding 3
    Расширение режима : CM (complete main)
    Параметр Endianness формата : Big
    Идентификатор кодека : 2000
    Продолжительность : 1 ч. 11 м.
    Вид битрейта : Постоянный
    Битрейт : 192 Кбит/сек
    Каналы : 2 канала
    Расположение каналов : Front: L R
    Частота : 48,0 КГц
    Битовая глубина : 16 бит
    Метод сжатия : С потерями
    Размер потока : 98,6 Мбайт (7%)
    Выравнивание : Разделение по промежуткам
    Продолжительность промежутка : 42 мс. (1,00 видеокадр)
    Время предзагрузки промежутка : 500 мс.
    Аудио #3
    Идентификатор : 3
    Формат : AC-3
    Формат/Информация : Audio Coding 3
    Расширение режима : CM (complete main)
    Параметр Endianness формата : Big
    Идентификатор кодека : 2000
    Продолжительность : 1 ч. 11 м.
    Вид битрейта : Постоянный
    Битрейт : 192 Кбит/сек
    Каналы : 2 канала
    Расположение каналов : Front: L R
    Частота : 48,0 КГц
    Битовая глубина : 16 бит
    Метод сжатия : С потерями
    Размер потока : 98,6 Мбайт (7%)
    Выравнивание : Разделение по промежуткам
    Продолжительность промежутка : 42 мс. (1,00 видеокадр)
    Время предзагрузки промежутка : 500 мс.

    Скриншоты

    Скачать .torrent

    Скачать торрент-файл бесплатно и на максимальной скорости!

    Как скачивать? · Что такое торрент? · Рейтинг и ограничения

    !ВНИМАНИЕ!
    Сайт не распространяет и не хранит электронные версии произведений, а занимается лишь лишь предоставлением доступа к создаваемому пользователями каталогу ссылок на торрент-файлы, которые содержат только списки хеш-сумм, убедительная просьба с жалобами обращаться напрямую к пользователю. Файлы для обмена на трекере предоставлены пользователями сайта, и администрация не несёт ответственности за их содержание. Просьба не заливать файлы, защищенные авторскими правами, а также файлы нелегального содержания!

    [Профиль] [ЛС]
    Показать сообщения:    
    Ответить на тему

    Текущее время: Сегодня, в 20:03

    Часовой пояс: GMT + 2



    Вы не можете начинать темы
    Вы не можете отвечать на сообщения
    Вы не можете редактировать свои сообщения
    Вы не можете удалять свои сообщения
    Вы не можете голосовать в опросах
    Вы не можете прикреплять файлы к сообщениям
    Вы не можете скачивать файлы