BitTorrentTracker PerecTracker.org
BitTorrentTracker PerecTracker.org
    
Регистрация  ·  Вход
 
 · 
Забыли пароль?

  • Любовь по рецепту / Menú degustació (Рохер Гуаль / Roger Gual) [2013, Испания, мелодрама, комедия, WEB-DL] MVO

    Ответить на тему
     
    Автор Сообщение

    Columb

    Создавать темы 02-Ноя-2013 10:40

           

    [Цитировать]

    Любовь по рецепту / Menú degustació
    Страна: Испания
    Жанр: мелодрама, комедия
    Год выпуска: 2013
    Продолжительность: 01:27:26
    Перевод: Профессиональный (многоголосый закадровый) лицензия
    Cубтитры: нет
    Режиссер: Рохер Гуаль / Roger Gual
    В ролях: Хан Корнет, Клаудия Бассольс, Висента Н’Донго, Эндрю Тарбет, Того Игава, Фионнула Флэнаган, Стивен Ри, Тимоти Гиббс, Андрес Эррера, Санти Миллан
    Описание: Прошел год с тех пор как Марк и Ракель забронировали столик в одном из лучших ресторанов Испании, расположенном прямо на берегу Средиземного моря. И вот наконец они приглашены! Мало того, день их посещения станет последним днем работы ресторана, который хозяева решили закрыть, чтобы открыть ресторан в Токио. Так что пропустить такое уникальное событие было бы просто преступлением. Но дело в том, что за этот год пара успела расстаться. Марк остался работать в Барселоне, а Ракель переехала в Нью-Йорк. Не смотря на это, они все же решают встретиться друг с другом вновь, всего на один вечер, который станет самым невероятным и незабываемым не только для них, но и для других гостей ресторана...
    Доп. информация: На Кинопоске имя режиссера написано как "Роже" (на французский манер), что неверно для испанской транскрипции. Так же в описании на том же Кинопоиске имя героини написано на английский манер - Рейчел, хотя по испански оно звучит, как Ракель. В переводе фильма все звучит правильно, по испански.
    Сэмпл: http://multi-up.com/919273
    Качество видео: WEB-DL
    Формат видео: AVI
    Видео: 720x304 (2.37:1), 24.000 fps, XviD build 73 ~1775 kbps avg, 0.34 bit/pixel
    Аудио: 48 kHz, AC3 Dolby Digital, 3/2 (L,C,R,l,r) + LFE ch, ~448 kbps

    MediaInfo

    Общее
    Полное имя : D:\Lubov.po.receptu_2013.WEBDLRip.avi
    Формат : AVI
    Формат/Информация : Audio Video Interleave
    Размер файла : 1,36 Гбайт
    Продолжительность : 1 ч. 27 м.
    Общий поток : 2233 Кбит/сек
    Программа кодирования : VirtualDubMod 1.5.10.2 (build 2540/release)
    Библиотека кодирования : VirtualDubMod build 2540/release
    Видео
    Идентификатор : 0
    Формат : MPEG-4 Visual
    Профиль формата : Advanced Simple@L5
    Параметр BVOP формата : 1
    Параметр QPel формата : Нет
    Параметр GMC формата : Без точки перехода
    Параметр матрицы формата : Default (H.263)
    Идентификатор кодека : XVID
    Идентификатор кодека/Подсказка : XviD
    Продолжительность : 1 ч. 27 м.
    Битрейт : 1775 Кбит/сек
    Ширина : 720 пикселей
    Высота : 304 пикселя
    Соотношение сторон : 2,35:1
    Частота кадров : 24,000 кадра/сек
    Цветовое пространство : YUV
    Субдискретизация насыщенности : 4:2:0
    Битовая глубина : 8 бит
    Тип развёртки : Прогрессивная
    Метод сжатия : С потерями
    Бит/(Пиксели*Кадры) : 0.338
    Размер потока : 1,08 Гбайт (80%)
    Библиотека кодирования : XviD 73
    Аудио
    Идентификатор : 1
    Формат : AC-3
    Формат/Информация : Audio Coding 3
    Расширение режима : CM (complete main)
    Параметр Endianness формата : Big
    Идентификатор кодека : 2000
    Продолжительность : 1 ч. 27 м.
    Вид битрейта : Постоянный
    Битрейт : 448 Кбит/сек
    Каналы : 6 каналов
    Расположение каналов : Front: L C R, Side: L R, LFE
    Частота : 48,0 КГц
    Битовая глубина : 16 бит
    Метод сжатия : С потерями
    Размер потока : 280 Мбайт (20%)
    Выравнивание : Разделение по промежуткам
    Продолжительность промежутка : 42 мс. (1,00 видеокадр)
    Время предзагрузки промежутка : 500 мс.

    Скриншот c названием фильма

    Скриншоты

    Скачать .torrent

    Скачать торрент-файл бесплатно и на максимальной скорости!

    Как скачивать? · Что такое торрент? · Рейтинг и ограничения

    !ВНИМАНИЕ!
    Сайт не распространяет и не хранит электронные версии произведений, а занимается лишь лишь предоставлением доступа к создаваемому пользователями каталогу ссылок на торрент-файлы, которые содержат только списки хеш-сумм, убедительная просьба с жалобами обращаться напрямую к пользователю. Файлы для обмена на трекере предоставлены пользователями сайта, и администрация не несёт ответственности за их содержание. Просьба не заливать файлы, защищенные авторскими правами, а также файлы нелегального содержания!

    [Профиль] [ЛС]

    -746

    Создавать темы 06-Янв-2014 00:59 (спустя 2 месяца 3 дня)

           

    Топик был перенесен из форума Зарубежные Фильмы (Новинки) в форум Фильмы 2011-2013

    -sasha2006 

    _________________
    Как бы ты высоко не летал, не забывай, с кем ты ползал..
     
    Показать сообщения:    
    Ответить на тему

    Текущее время: Сегодня, в 15:48

    Часовой пояс: GMT + 2



    Вы не можете начинать темы
    Вы не можете отвечать на сообщения
    Вы не можете редактировать свои сообщения
    Вы не можете удалять свои сообщения
    Вы не можете голосовать в опросах
    Вы не можете прикреплять файлы к сообщениям
    Вы не можете скачивать файлы