BitTorrentTracker PerecTracker.org
BitTorrentTracker PerecTracker.org
    
Регистрация  ·  Вход
 
 · 
Забыли пароль?

  • Сказочная страна / Neverland (Дэмион Дитц / Damion Dietz) [2003, США, Драма, фэнтези, DVDRip] AVO + Original Eng

    Ответить на тему
     
    Автор Сообщение

    Columb

    Создавать темы 02-Ноя-2013 10:13

           

    [Цитировать]

    Сказочная страна / Neverland
    Страна: США
    Жанр: Драма, фэнтези
    Год выпуска: 2003
    Продолжительность: 01:19:45
    Перевод: Авторский (одноголосый закадровый)
    Cубтитры: нет
    Оригинальная аудиодорожка: английский
    Режиссер: Дэмион Дитц / Damion Dietz
    В ролях: Маркус Рейнага / Marcus Reynaga, Уил Уитон / Wil Wheaton, Мелани Белл / Melany Bell, Рик Спаркс / Rick Sparks, Кари Уолгрен / Kari Wahlgren, Гари Келли /Gary Kelley, Рэй Гарсиа / Ray Garcia
    Описание: Вольная оранжировка истории Питера Пена. Совершенно отсутствуют диснеевские декорации сусального золота и спецэффекты, основные повороты сюжета часто цитируются наизнанку, иронично и с изрядной долей кича. В сказочную страну есть черный ход, где за кулисами те же герои продолжают представление непрофессионально - откровеннее, неувереннее и жестче. Фильм в хорошем смысле малобюджетен, а пародия оказывается ярче оригинала, выбрасывая шелуху и оставляя главную тему сказки "что значит быть (или не быть) слишком взрослым для всего этого".
    Доп. информация: Гей-специализация режиссера проявлена здесь чуть менее чем никак, оставаясь в рамках эстетики луна-парка и подчеркивая фриковость персонажей.. (пожалуй самая внезапная Венди и абсолютно лучший Крюк всех времен и народов)
    Сэмпл: http://multi-up.com/919245
    Качество видео: DVDRip
    Формат видео: AVI
    Видео: XviD, 512x288, 16:9, 950 Kbps, 29.970 fps, 0.215 Bits/Pixel
    Аудио: Русский (AC3, 2 channels, 48000Hz, 128 Kbps)
    Аудио 2: English (AC3, 2 channels, 48000Hz, 128 Kbps)

    MediaInfo

    General
    Complete name : E:\NEVERLAND\demux\Neverland.avi
    Format : AVI
    Format/Info : Audio Video Interleave
    File size : 695 MiB
    Duration : 1h 19mn
    Overall bit rate : 1 217 Kbps
    Video
    ID : 0
    Format : MPEG-4 Visual
    Format profile : Simple@L5
    Format settings, BVOP : No
    Format settings, QPel : No
    Format settings, GMC : No warppoints
    Format settings, Matrix : Default (H.263)
    Codec ID : XVID
    Codec ID/Hint : XviD
    Duration : 1h 19mn
    Bit rate : 950 Kbps
    Width : 512 pixels
    Height : 288 pixels
    Display aspect ratio : 16:9
    Frame rate : 29.970 fps
    Resolution : 8 bits
    Colorimetry : 4:2:0
    Scan type : Progressive
    Bits/(Pixel*Frame) : 0.215
    Stream size : 542 MiB (78%)
    Writing library : XviD 64
    Audio #1
    ID : 1
    Format : AC-3
    Format/Info : Audio Coding 3
    Codec ID : 2000
    Duration : 1h 19mn
    Bit rate mode : Constant
    Bit rate : 128 Kbps
    Channel(s) : 2 channels
    Channel positions : L R
    Sampling rate : 48.0 KHz
    Stream size : 73.0 MiB (11%)
    Alignment : Split accross interleaves
    Interleave, duration : 64 ms (1.92 video frames)
    Interleave, preload duration : 500 ms
    Title : Neverland.RUS
    Audio #2
    ID : 2
    Format : AC-3
    Format/Info : Audio Coding 3
    Codec ID : 2000
    Duration : 1h 19mn
    Bit rate mode : Constant
    Bit rate : 128 Kbps
    Channel(s) : 2 channels
    Channel positions : L R
    Sampling rate : 48.0 KHz
    Stream size : 73.0 MiB (11%)
    Alignment : Split accross interleaves
    Interleave, duration : 64 ms (1.92 video frames)
    Interleave, preload duration : 500 ms
    Title : Neverland.ENG

    Скриншот c названием фильма

    Скриншоты

    Скачать .torrent

    Скачать торрент-файл бесплатно и на максимальной скорости!

    Как скачивать? · Что такое торрент? · Рейтинг и ограничения

    !ВНИМАНИЕ!
    Сайт не распространяет и не хранит электронные версии произведений, а занимается лишь лишь предоставлением доступа к создаваемому пользователями каталогу ссылок на торрент-файлы, которые содержат только списки хеш-сумм, убедительная просьба с жалобами обращаться напрямую к пользователю. Файлы для обмена на трекере предоставлены пользователями сайта, и администрация не несёт ответственности за их содержание. Просьба не заливать файлы, защищенные авторскими правами, а также файлы нелегального содержания!

    [Профиль] [ЛС]
    Показать сообщения:    
    Ответить на тему

    Текущее время: Сегодня, в 06:36

    Часовой пояс: GMT + 2



    Вы не можете начинать темы
    Вы не можете отвечать на сообщения
    Вы не можете редактировать свои сообщения
    Вы не можете удалять свои сообщения
    Вы не можете голосовать в опросах
    Вы не можете прикреплять файлы к сообщениям
    Вы не можете скачивать файлы