BitTorrentTracker PerecTracker.org
BitTorrentTracker PerecTracker.org
    
Регистрация  ·  Вход
 
 · 
Забыли пароль?

  • Адский бункер: Восстание спецназа / Outpost: Rise of the Spetsnaz (Киран Паркер / Kieran Parker) [2013, Великобритания, ужасы, боевик, HDRip] VO

    Ответить на тему
     
    Автор Сообщение

    Columb

    Создавать темы 02-Ноя-2013 09:59

           

    [Цитировать]

    Адский бункер: Восстание спецназаOutpost: Rise of the Spetsnaz-Страна: Великобритания
    Жанр: ужасы, боевик
    Год выпуска: 2013
    Продолжительность: 01:27:03-Перевод: Одноголосый закадровый [den904] - перевод на русский язык [МЕГАПЫХАРЬ] - работа со звуком [КОЛОБОК]
    Оригинальная аудиодорожка: английский
    Субтитры: нет
    Режиссер: Киран Паркер / Kieran Parker
    В ролях: Брайан Ларкин, Иван Камарас, Майкл МакКелл, Велибор Топик, Лоуренс Посса, Бен Ламберт, Алек Утгофф, Винс Дочерти, Гарет Моррисон, Лео Хорсфилд, Вивьен Тейлор, Джэми Кэмпбелл-Описание: После нападения на колонну немецких солдат в руки спецгруппы Красной Армии попадают секретные документы, в которых содержится информация о месте расположения тайной нацистской лаборатории. Командир Долохов принимает решение найти и ликвидировать лабораторию, но внезапное нападение обрекает его на плен и сущий ад в подземельях таинственного бункера.-

    -

    Доп. Информация

    Сценарий: Рэй Брантон / Rae Brunton
    Продюсер: Арабелла Пейдж Крофт / Arabella Page Croft, Киран Паркер / Kieran Parker, Джэми Кармайкл / Jamie Carmichael, Виктория Даббс / Victoria Dabbs, Найджел Томас / Nigel Thomas
    Оператор: Карлос Де Карвальо / Carlos De Carvalho
    Композитор: Эл Хардиман / Al Hardiman, Патрик Йонсон / Patrick Jonsson
    Мировая премьера: 27 июня 2013
    -Качество: HDRip
    Контейнер: AVI
    Видео: XviD, 720x304 (2.35:1), 1854 kbps, 23,976 fps, 0,353 bpp
    Аудио №1: AC3 / 2.0 / 48 kHz / 192 kbps / 16 bit
    Аудио №2: AC3 / 2.0 / 48 kHz / 192 kbps / 16 bit-

    Media Info

    Общее
    Полное имя : G:\Adskij.bunker.Vosstanie.specnaza.2013.L1_HDRip.avi
    Формат : AVI
    Формат/Информация : Audio Video Interleave
    Размер файла : 1,37 Гбайт
    Продолжительность : 1 ч. 27 м.
    Общий поток : 2253 Кбит/сек
    Программа кодирования : VirtualDubMod 1.5.10.3 | www.virtualdub-fr.org || (build 2550/release)
    Библиотека кодирования : VirtualDubMod build 2550/release
    Видео
    Идентификатор : 0
    Формат : MPEG-4 Visual
    Профиль формата : Advanced Simple@L5
    Параметр BVOP формата : 1
    Параметр QPel формата : Нет
    Параметр GMC формата : Без точки перехода
    Параметр матрицы формата : Выборочная
    Идентификатор кодека : XVID
    Идентификатор кодека/Подсказка : XviD
    Продолжительность : 1 ч. 27 м.
    Битрейт : 1854 Кбит/сек
    Ширина : 720 пикселей
    Высота : 304 пикселя
    Соотношение сторон : 2,35:1
    Частота кадров : 23,976 кадра/сек
    Цветовое пространство : YUV
    Субдискретизация насыщенности : 4:2:0
    Битовая глубина : 8 бит
    Тип развёртки : Прогрессивная
    Метод сжатия : С потерями
    Бит/(Пиксели*Кадры) : 0.353
    Размер потока : 1,13 Гбайт (82%)
    Библиотека кодирования : XviD 1.2.1 (UTC 2008-12-04)
    Аудио #1
    Идентификатор : 1
    Формат : AC-3
    Формат/Информация : Audio Coding 3
    Расширение режима : CM (complete main)
    Параметр Endianness формата : Big
    Идентификатор кодека : 2000
    Продолжительность : 1 ч. 27 м.
    Вид битрейта : Постоянный
    Битрейт : 192 Кбит/сек
    Каналы : 2 канала
    Расположение каналов : Front: L R
    Частота : 48,0 КГц
    Битовая глубина : 16 бит
    Метод сжатия : С потерями
    Размер потока : 120 Мбайт (9%)
    Выравнивание : Разделение по промежуткам
    Продолжительность промежутка : 42 мс. (1,00 видеокадр)
    Время предзагрузки промежутка : 500 мс.
    Аудио #2
    Идентификатор : 2
    Формат : AC-3
    Формат/Информация : Audio Coding 3
    Расширение режима : CM (complete main)
    Параметр Endianness формата : Big
    Идентификатор кодека : 2000
    Продолжительность : 1 ч. 27 м.
    Вид битрейта : Постоянный
    Битрейт : 192 Кбит/сек
    Каналы : 2 канала
    Расположение каналов : Front: L R
    Частота : 48,0 КГц
    Битовая глубина : 16 бит
    Метод сжатия : С потерями
    Размер потока : 120 Мбайт (9%)
    Выравнивание : Разделение по промежуткам
    Продолжительность промежутка : 42 мс. (1,00 видеокадр)
    Время предзагрузки промежутка : 500 мс.

    Скриншот с названием фильма

    Скриншоты

    Скачать .torrent

    Скачать торрент-файл бесплатно и на максимальной скорости!

    Как скачивать? · Что такое торрент? · Рейтинг и ограничения

    !ВНИМАНИЕ!
    Сайт не распространяет и не хранит электронные версии произведений, а занимается лишь лишь предоставлением доступа к создаваемому пользователями каталогу ссылок на торрент-файлы, которые содержат только списки хеш-сумм, убедительная просьба с жалобами обращаться напрямую к пользователю. Файлы для обмена на трекере предоставлены пользователями сайта, и администрация не несёт ответственности за их содержание. Просьба не заливать файлы, защищенные авторскими правами, а также файлы нелегального содержания!

    [Профиль] [ЛС]

    -746

    Создавать темы 06-Янв-2014 00:59 (спустя 2 месяца 3 дня)

           

    Топик был перенесен из форума Зарубежные Фильмы (Новинки) в форум Фильмы 2011-2013

    -sasha2006 

    _________________
    Как бы ты высоко не летал, не забывай, с кем ты ползал..
     
    Показать сообщения:    
    Ответить на тему

    Текущее время: Сегодня, в 20:48

    Часовой пояс: GMT + 2



    Вы не можете начинать темы
    Вы не можете отвечать на сообщения
    Вы не можете редактировать свои сообщения
    Вы не можете удалять свои сообщения
    Вы не можете голосовать в опросах
    Вы не можете прикреплять файлы к сообщениям
    Вы не можете скачивать файлы